Часовой пояс: UTC + 3 часа




Начать новую тему Ответить на тему  [ 1 сообщение ] 
Автор Сообщение
СообщениеДобавлено: 2014-04-01 02:21 
Не в сети
Аватара пользователя
Раздал: 7.39 ГБ
Скачал: 410.09 МБ
Ратио: 18.440


Зарегистрирован: 2013-03-13 21:22
Сообщения: 8121
Лотта с улицы Капризуль / Лотта с улицы Бузотёров / Lotta p Brkmakargatan

#777
Страна: Швеция
Жанр: Детский/Семейный
Год выпуска: 1992
Продолжительность: 1:13:50

Перевод: Субтитры (old_barb)
Cубтитры: русские, шведские
Оригинальная аудиодорожка: шведский

Режиссер: Юханна Хальд / Johanna Hald

В ролях: Грета Хавнескёльд, Линн Глоппестад, Мартин Андерссон, Маргрет Вейверс и др.

Описание: Лотта – малышка с характером. Что задумала, то и сделает; чего захотела – выньте да положьте! Гуляет простуженная под дождем, ворует чужие велосипеды и ни за что не станет есть салаку в воскресенье! Несмотря на это, ее все любят. Как ей это удается – загадка…

Доп. информация: Фильм снят по мотивам произведений Астрид Линдгрен.

Сэмпл: http://multi-up.com/938061

Качество видео: DVDRip
Формат видео: AVI

Видео: 2191 Кбит/сек, 720*406 (16:9), 25,000 кадр/сек, XviD, Бит/(Пиксели*Кадры) : 0.300
Аудио: 448 Кбит/сек, 48,0 КГц, 6 каналов, AC-3
Формат субтитров: softsub (SRT)


175
00:20:08,200 --> 00:20:11,179
Ну что, никого не забыли?

176
00:20:11,280 --> 00:20:14,958
14 бутербродов, 20 блинчиков,
трое детей и одна сердитая жена.

177
00:20:15,120 --> 00:20:20,798
— И Хрюшка!
— Старый поросенок...

178
00:20:20,960 --> 00:20:26,034
— Это не поросенок, а медведь!
— Какой медведь?

179
00:20:26,200 --> 00:20:31,912
— Обычный или белый?
— Не ссорьтесь.

180
00:20:32,080 --> 00:20:36,756
Это поросенковый медведь - вот так вот!

181
00:21:26,760 --> 00:21:29,229
Приехали!

182
00:21:29,400 --> 00:21:35,271
— Давайте скорей.
— Сейчас, только вещи возьмем.

183
00:21:35,440 --> 00:21:40,196
Мия, ты возьми вот это,
а Юнас понесет жилеты.

184
00:21:51,840 --> 00:21:57,233
Как я хочу покорить твое сердце....

185
00:21:57,400 --> 00:22:00,757
Ты это уже сделал!

186
00:22:00,758 --> 00:22:04,113
Вот здесь и остановимся.
Отличное местечко!

187
00:22:04,280 --> 00:22:10,993
- Здесь красиво, да?
- Правда же здесь здорово, Хрюшка?

188
00:22:11,160 --> 00:22:15,233
Надо расстелить одеяло как следует...

189
00:22:15,400 --> 00:22:19,871
— Мы пошли к воде.
— Жилеты наденьте!

190
00:22:20,040 --> 00:22:25,911
— Ловите!
— Ну зачем они нам...

191
00:22:30,760 --> 00:22:36,039
— А для Хрюшки почему нет жилета?
— Что-то я об этом не подумал...

192
00:22:44,200 --> 00:22:48,398
Беги поиграй!

193
00:22:48,560 --> 00:22:53,555
— Подождите меня!
— Давай быстрее!

194
00:22:55,360 --> 00:22:59,991
Буду тут лежать целый день
и не вылезу ни за что!

195
00:23:00,160 --> 00:23:03,516
Присмотри за детьми.



Общее
Полное имя : D:\barb\Subtitles_sv\Lotta\Lotta1\Lotta.avi
Формат : AVI
Формат/Информация : Audio Video Interleave
Профиль формата : OpenDML
Размер файла : 1,37 Гбайт
Продолжительность : 1 ч. 13 м.
Общий поток : 2651 Кбит/сек
Название фильма : Lotta.Pa.Brakmakargatan.1992.SWEDiSH.SWESUB.DVDRip.XViD.AC3-Devil
Программа кодирования : Lavf53.32.100
Формат оригинала/Имя : LOTTA_PA_BMG

Видео
Идентификатор : 0
Формат : xvid
Идентификатор кодека : xvid
Продолжительность : 1 ч. 13 м.
Битрейт : 2191 Кбит/сек
Ширина : 720 пикселей
Высота : 406 пикселей
Соотношение сторон : 16:9
Частота кадров : 25,000 кадров/сек
Бит/(Пиксели*Кадры) : 0.300
Размер потока : 1,13 Гбайт (83%)

Аудио
Идентификатор : 1
Формат : AC-3
Формат/Информация : Audio Coding 3
Расширение режима : CM (complete main)
Параметр Endianness формата : Big
Идентификатор кодека : 2000
Продолжительность : 1 ч. 13 м.
Вид битрейта : Постоянный
Битрейт : 448 Кбит/сек
Каналы : 6 каналов
Расположение каналов : Front: L C R, Side: L R, LFE
Частота : 48,0 КГц
Битовая глубина : 16 бит
Метод сжатия : С потерями
Размер потока : 237 Мбайт (17%)
Выравнивание : Соединение по промежуткам
Продолжительность промежутка : 32 мс. (0,80 видеокадр)










У вас нет необходимых прав для просмотра вложений в этом сообщении.


Вернуться к началу
 Профиль  
Ответить с цитатой  
  • Торрент
Автор: NewsRbk Хэш: ---
Добавлен: 2014-04-01 02:01 Приватный: Нет (DHT включён)
Статус:
---
Размер: 1.37 ГБ (1 468 569 054 байт)
Изменил:
---
Скачали: 0 (Раздающих: 0%)
Причина:
---
Здоровье: 0%
Сидеров: 0 Личеров: 0
Скорость раздачи: 0 байт/сек Скорость скачивания: 0 байт/сек
Последний сидер: Нет Последний личер: Нет
Для скачивания торрента необходимо зарегистрироваться или войти на трекер.
Показать сообщения за:  Поле сортировки  
Начать новую тему Ответить на тему  [ 1 сообщение ] 

Часовой пояс: UTC + 3 часа


Кто сейчас на конференции

Сейчас этот форум просматривают: нет зарегистрированных пользователей и гости: 1


Вы не можете начинать темы
Вы не можете отвечать на сообщения
Вы не можете редактировать свои сообщения
Вы не можете удалять свои сообщения
Вы не можете добавлять вложения

Найти:
Перейти:  
Переместиться наверх