Часовой пояс: UTC + 3 часа




Начать новую тему Ответить на тему  [ 1 сообщение ] 
Автор Сообщение
СообщениеДобавлено: 2014-03-26 00:21 
Не в сети
Аватара пользователя
Раздал: 7.39 ГБ
Скачал: 410.09 МБ
Ратио: 18.440


Зарегистрирован: 2013-03-13 21:22
Сообщения: 8121
Послезавтра / The Day After Tomorrow



#777



Страна: США
Жанр: катастрофа
Год выпуска: 2004
Продолжительность: 02:03:41

Перевод 1: Профессиональный (дублированный)
Перевод 2: Профессиональный (двухголосый закадровый) Tycoon
Cубтитры: русские
Оригинальная аудиодорожка: английский


Режиссер: Роланд Эммерих / Roland Emmerich

В ролях: Деннис Куэйд, Джейк Джилленхол, Эмми Россам, Дэш Майок, Джей О. Сэндерс, Села Уорд, Иэн Холм, Кеннет Уэлш, Гленн Пламмер, Адриан Лестер


Описание: Земля уверенно движется навстречу глобальной экологической катастрофе: в одной части света все живое погибает от засухи, в другой — разбушевавшаяся водная стихия сносит города.
Близость катастрофы вынуждает ученого-климатолога, пытающегося найти способ остановить глобальное потепление, отправиться на поиски пропавшего сына в Нью-Йорк, в котором наступил новый ледниковый период…





Качество видео: BDRip-AVC источник 1080p AVC ~26 Mbps звук взят тут СЕЕ
Формат видео: MKV

Видео: AVC (x264) 1152x490@23.976fps ~3713 kBit/s 2.35:1 0.274
Аудио 1: Дубляж AC3 448 kBit/s 48 kHz 5.1 DD
Аудио 2: DVO (Tycoon) AC3 448 kBit/s 48 kHz 5.1 DD
Аудио 3: English AC3 448 kBit/s 48 kHz 5.1 DD
Формат субтитров: softsub (SRT)





x264vfw [info]: using SAR=1/1
x264vfw [info]: using cpu capabilities: MMX2 SSE2Fast SSSE3 SSE4.1 Cache64
x264vfw [info]: profile High, level 4.1
x264vfw [info]: frame I:579 Avg QP:16.90 size: 65579
x264vfw [info]: frame P:20030 Avg QP:18.30 size: 32639
x264vfw [info]: frame B:66863 Avg QP:20.01 size: 14976
x264vfw [info]: consecutive B-frames: 2.9% 3.4% 9.5% 19.9% 15.3% 39.5% 5.8% 1.1% 1.0% 0.5% 0.5% 0.4% 0.3%
x264vfw [info]: mb I I16..4: 4.6% 83.9% 11.6%
x264vfw [info]: mb P I16..4: 0.5% 16.6% 1.1% P16..4: 29.4% 37.2% 12.3% 1.2% 0.1% skip: 1.6%
x264vfw [info]: mb B I16..4: 0.0% 2.4% 0.1% B16..8: 37.7% 23.2% 4.4% direct: 7.9% skip:24.2% L0:44.0% L1:44.1% BI:11.9%
x264vfw [info]: 8x8 transform intra:91.0% inter:64.0%
x264vfw [info]: direct mvs spatial:97.1% temporal:2.9%
x264vfw [info]: coded y,uvDC,uvAC intra: 95.7% 87.9% 68.2% inter: 38.5% 26.6% 4.5%
x264vfw [info]: i16 v,h,dc,p: 28% 16% 6% 50%
x264vfw [info]: i8 v,h,dc,ddl,ddr,vr,hd,vl,hu: 8% 8% 8% 10% 14% 13% 14% 12% 14%
x264vfw [info]: i4 v,h,dc,ddl,ddr,vr,hd,vl,hu: 10% 7% 2% 10% 16% 15% 15% 12% 13%
x264vfw [info]: i8c dc,h,v,p: 41% 25% 17% 17%
x264vfw [info]: Weighted P-Frames: Y:17.5% UV:12.1%
x264vfw [info]: ref P L0: 42.3% 9.9% 18.3% 7.1% 5.5% 3.9% 3.3% 1.9% 1.7% 1.4% 1.3% 1.1% 1.0% 1.0% 0.3% 0.1%
x264vfw [info]: ref B L0: 69.4% 13.4% 6.1% 3.1% 2.1% 1.7% 1.3% 0.8% 0.7% 0.6% 0.5% 0.3% 0.1%
x264vfw [info]: ref B L1: 91.8% 8.2%
x264vfw [info]: kb/s:3712.52


x264vfw [info]: using SAR=1/1
x264vfw [info]: using cpu capabilities: MMX2 SSE2Fast SSSE3 SSE4.1 Cache64
x264vfw [info]: profile High, level 4.1
x264vfw [info]: frame I:580 Avg QP:15.90 size: 67530
x264vfw [info]: frame P:19800 Avg QP:17.53 size: 29987
x264vfw [info]: frame B:70056 Avg QP:19.00 size: 15888
x264vfw [info]: consecutive B-frames: 1.6% 2.0% 17.4% 13.1% 14.0% 38.8% 6.3% 2.1% 1.6% 0.7% 0.7% 1.1% 0.5%
x264vfw [info]: mb I I16..4: 6.8% 79.0% 14.2%
x264vfw [info]: mb P I16..4: 0.4% 14.0% 0.7% P16..4: 27.3% 30.9% 12.0% 1.4% 0.1% skip:13.2%
x264vfw [info]: mb B I16..4: 0.0% 2.6% 0.1% B16..8: 33.6% 21.1% 4.6% direct: 8.9% skip:29.1% L0:47.0% L1:41.1% BI:11.9%
x264vfw [info]: 8x8 transform intra:92.4% inter:55.6%
x264vfw [info]: direct mvs spatial:95.4% temporal:4.6%
x264vfw [info]: coded y,uvDC,uvAC intra: 95.6% 81.4% 64.2% inter: 37.0% 21.8% 3.3%
x264vfw [info]: i16 v,h,dc,p: 31% 23% 13% 33%
x264vfw [info]: i8 v,h,dc,ddl,ddr,vr,hd,vl,hu: 8% 7% 13% 10% 13% 12% 12% 11% 14%
x264vfw [info]: i4 v,h,dc,ddl,ddr,vr,hd,vl,hu: 14% 8% 10% 9% 14% 12% 12% 10% 12%
x264vfw [info]: i8c dc,h,v,p: 40% 29% 17% 14%
x264vfw [info]: Weighted P-Frames: Y:14.2% UV:8.9%
x264vfw [info]: ref P L0: 41.2% 7.0% 18.3% 7.4% 6.1% 4.3% 3.9% 2.2% 2.0% 2.2% 1.5% 1.2% 1.1% 1.1% 0.3% 0.0%
x264vfw [info]: ref B L0: 61.9% 15.6% 7.3% 3.4% 3.0% 2.1% 1.9% 1.2% 0.9% 1.3% 0.8% 0.4% 0.2%
x264vfw [info]: ref B L1: 90.8% 9.2%
x264vfw [info]: kb/s:3703.12



General
Unique ID : 241190656305233431513561212430386317414 (0xB573A1776BB5C1AC9198C6779479C866)
Complete name : F:\FILMS\___ - R - ___\The Day After Tomorrow.mkv
Format : Matroska
Format version : Version 4 / Version 2
File size : 4.37 GiB
Duration : 2h 3mn
Overall bit rate : 5 054 Kbps
Movie name : The.Day.After.Tomorrow.720p.BDRip_shartm
Encoded date : UTC 2014-01-12 17:13:00
Writing application : mkvmerge v6.5.0 ('Isn't she lovely') built on Oct 20 2013 12:50:05
Writing library : libebml v1.3.0 + libmatroska v1.4.1
Attachment : Yes / Yes / Yes / Yes

Video
ID : 1
Format : AVC
Format/Info : Advanced Video Codec
Format profile : High@L4.1
Format settings, CABAC : Yes
Format settings, ReFrames : 14 frames
Codec ID : V_MPEG4/ISO/AVC
Duration : 2h 3mn
Bit rate : 3 713 Kbps
Width : 1 152 pixels
Height : 490 pixels
Display aspect ratio : 2.35:1
Frame rate mode : Constant
Frame rate : 23.976 fps
Color space : YUV
Chroma subsampling : 4:2:0
Bit depth : 8 bits
Scan type : Progressive
Bits/(Pixel*Frame) : 0.274
Stream size : 3.12 GiB (71%)
Title : AVC (x264) 1152x490@23.976fps ~3713 kBit/s 2-pass 2.35:1
Writing library : x264 core 130 r2274bm c832fe9
Encoding settings : cabac=1 / ref=14 / deblock=1:-3:-3 / analyse=0x3:0x133 / me=umh / subme=11 / psy=1 / psy_rd=1.00:0.05 / mixed_ref=1 / me_range=48 / chroma_me=1 / trellis=2 / 8x8dct=1 / cqm=0 / deadzone=21,11 / fast_pskip=0 / chroma_qp_offset=-3 / threads=6 / lookahead_threads=1 / sliced_threads=0 / nr=0 / decimate=1 / interlaced=0 / bluray_compat=0 / constrained_intra=0 / bframes=12 / b_pyramid=2 / b_adapt=2 / b_bias=0 / direct=3 / weightb=1 / open_gop=0 / weightp=2 / keyint=250 / keyint_min=23 / scenecut=40 / intra_refresh=0 / rc=2pass / mbtree=0 / bitrate=3713 / ratetol=1.0 / qcomp=0.90 / qpmin=10 / qpmax=69 / qpstep=4 / cplxblur=40.0 / qblur=1.2 / ip_ratio=1.30 / pb_ratio=1.20 / aq=3:0.75
Language : English
Default : Yes
Forced : No

Audio #1
ID : 2
Format : AC-3
Format/Info : Audio Coding 3
Mode extension : CM (complete main)
Format settings, Endianness : Big
Codec ID : A_AC3
Duration : 2h 3mn
Bit rate mode : Constant
Bit rate : 448 Kbps
Channel count : 6 channels
Channel positions : Front: L C R, Side: L R, LFE
Sampling rate : 48.0 KHz
Bit depth : 16 bits
Compression mode : Lossy
Stream size : 396 MiB (9%)
Title : Дубляж AC3 448 kBit/s 48 kHz 5.1 DD
Language : Russian
Default : Yes
Forced : No

Audio #2
ID : 3
Format : AC-3
Format/Info : Audio Coding 3
Mode extension : CM (complete main)
Format settings, Endianness : Big
Codec ID : A_AC3
Duration : 2h 3mn
Bit rate mode : Constant
Bit rate : 448 Kbps
Channel count : 6 channels
Channel positions : Front: L C R, Side: L R, LFE
Sampling rate : 48.0 KHz
Bit depth : 16 bits
Compression mode : Lossy
Stream size : 396 MiB (9%)
Title : DVO (Tycoon) AC3 448 kBit/s 48 kHz 5.1 DD
Language : Russian
Default : No
Forced : No

Audio #3
ID : 4
Format : AC-3
Format/Info : Audio Coding 3
Mode extension : CM (complete main)
Format settings, Endianness : Big
Codec ID : A_AC3
Duration : 2h 3mn
Bit rate mode : Constant
Bit rate : 448 Kbps
Channel count : 6 channels
Channel positions : Front: L C R, Side: L R, LFE
Sampling rate : 48.0 KHz
Bit depth : 16 bits
Compression mode : Lossy
Stream size : 396 MiB (9%)
Title : English AC3 448 kBit/s 48 kHz 5.1 DD
Language : English
Default : No
Forced : No

Text #1
ID : 5
Format : UTF-8
Codec ID : S_TEXT/UTF8
Codec ID/Info : UTF-8 Plain Text
Language : Russian
Default : No
Forced : No

Text #2
ID : 6
Format : UTF-8
Codec ID : S_TEXT/UTF8
Codec ID/Info : UTF-8 Plain Text
Language : English
Default : No
Forced : No

Menu
00:00:00.000 : en:Chapter 1
00:03:07.562 : en:Chapter 2
00:06:15.792 : en:Chapter 3
00:09:17.181 : en:Chapter 4
00:12:04.432 : en:Chapter 5
00:15:42.733 : en:Chapter 6
00:18:37.699 : en:Chapter 7
00:20:45.661 : en:Chapter 8
00:22:41.401 : en:Chapter 9
00:24:13.326 : en:Chapter 10
00:31:22.922 : en:Chapter 11
00:38:26.303 : en:Chapter 12
00:42:14.948 : en:Chapter 13
00:48:08.010 : en:Chapter 14
00:51:15.655 : en:Chapter 15
00:54:12.415 : en:Chapter 16
01:03:00.151 : en:Chapter 17
01:06:22.353 : en:Chapter 18
01:08:09.835 : en:Chapter 19
01:11:26.615 : en:Chapter 20
01:13:40.248 : en:Chapter 21
01:17:46.995 : en:Chapter 22
01:20:52.430 : en:Chapter 23
01:24:08.001 : en:Chapter 24
01:27:57.647 : en:Chapter 25
01:29:35.870 : en:Chapter 26
01:32:18.616 : en:Chapter 27
01:38:42.958 : en:Chapter 28
01:41:34.463 : en:Chapter 29
01:46:57.911 : en:Chapter 30
01:50:41.676 : en:Chapter 31
01:55:38.598 : en:Chapter 32
02:03:39.411 : en:Chapter 33










У вас нет необходимых прав для просмотра вложений в этом сообщении.


Вернуться к началу
 Профиль  
Ответить с цитатой  
  • Торрент
Автор: NewsRbk Хэш: ---
Добавлен: 2014-03-25 23:44 Приватный: Нет (DHT включён)
Статус:
---
Размер: 4.37 ГБ (4 688 529 582 байт)
Изменил:
---
Скачали: 0 (Раздающих: 0%)
Причина:
---
Здоровье: 0%
Сидеров: 0 Личеров: 0
Скорость раздачи: 0 байт/сек Скорость скачивания: 0 байт/сек
Последний сидер: Нет Последний личер: Нет
Для скачивания торрента необходимо зарегистрироваться или войти на трекер.
Показать сообщения за:  Поле сортировки  
Начать новую тему Ответить на тему  [ 1 сообщение ] 

Часовой пояс: UTC + 3 часа


Кто сейчас на конференции

Сейчас этот форум просматривают: нет зарегистрированных пользователей и гости: 1


Вы не можете начинать темы
Вы не можете отвечать на сообщения
Вы не можете редактировать свои сообщения
Вы не можете удалять свои сообщения
Вы не можете добавлять вложения

Найти:
Перейти:  
Переместиться наверх