Часовой пояс: UTC + 3 часа




Начать новую тему Ответить на тему  [ 1 сообщение ] 
Автор Сообщение
СообщениеДобавлено: 2014-03-24 09:22 
Не в сети
Аватара пользователя
Раздал: 7.39 ГБ
Скачал: 410.09 МБ
Ратио: 18.440


Зарегистрирован: 2013-03-13 21:22
Сообщения: 8121



Гнев Титанов / Wrath of the Titans (2012) BDRip

#777
Русское название: Гнев Титанов
Оригинальное название: Wrath of the Titans
Год выпуска: 2012
Производство: США, Warner Bros. Pictures, Legendary Pictures, Cott Productions
Жанр: Фэнтези, Боевик, Приключения

Перевод: Дублированный [Лицензия]
Субтитры: Вшитые отключаемые
Язык субтитров: Русские, Английские

Дата мировой премьеры: 28 марта 2012
Дата российской премьеры: 29 марта 2012, «Каро-Премьер»
Дата выхода DVD релиза: 12 июля 2012, «CP Дистрибуция»

Режиссер: Джонатан Либесман
Продюсер: Бэзил Иваник, Полли Коэн, Кевин Де Ла Ной
Актеры: Сэм Уортингтон, Лиам Нисон, Рэйф Файнс, Эдгар Рамирез, Тоби Кеббелл, Розамунд Пайк, Билл Найи, Дэнни Хьюстон, Джон Белл, Лили Джеймс

Описание фильма:
Спустя десятилетие после героической победы над чудовищным Кракеном Персей пытается жить спокойной жизнью деревенского рыбака и отца-одиночки. В то же время между титанами и богами начинается борьба за власть. Олимпийцы, утратившие былую преданность людей, теряют контроль над тюрьмой, в которой заключены титаны и их глава Кронос. Сила титанов растет, в то время как могущество Зевса слабеет. Силы Аида ищут путь, чтобы прорваться на землю. Персей храбро отправляется в рискованное путешествие по подземному царству, чтобы спасти Зевса, свергнуть титанов и спасти человечество.



Продолжительность: 01:39:32
Качество видео: BDRip LQ (источник: Blu-ray Disc)

Видеокодек: MPEG-4 AVC/H.264
Битрейт видео: ~7389 Кбит/сек
Размер кадра: 1920x1080
Аудио #1: AC-3, 6 ch, 448 kbps - Русский
Аудио #2: AC-3, 6 ch, 448 kbps - Английский
Общее
Уникальный идентификатор : 215939826180209619101651558721305704860 (0xA2747F6C0F841D70BACCB24ADE0FF99C)
Полное имя : Wrath.of.the.Titans.2012.BDRip.1080p..mkv
Формат : Matroska
Версия формата : Version 2
Размер файла : 5,76 Гбайт
Продолжительность : 1 ч. 39 м.
Общий поток : 8284 Кбит/сек
Название фильма : Гнев Титанов / Wrath of the Titans (2012)
Дата кодирования : UTC 2012-07-09 21:07:12
Программа кодирования : mkvmerge v5.5.0 ('Healer') built on Apr 6 2012 21:43:24
Библиотека кодирования : libebml v1.2.3 + libmatroska v1.3.0

Видео
Идентификатор : 1
Формат : AVC
Формат/Информация : Advanced Video Codec
Профиль формата : [url=mailto:High@L4.1]High@L4.1[/url]
Параметр CABAC формата : Да
Параметр ReFrames формата : 4 кадра
Идентификатор кодека : V_MPEG4/ISO/AVC
Продолжительность : 1 ч. 39 м.
Битрейт : 7389 Кбит/сек
Ширина : 1920 пикселей
Высота : 1080 пикселей
Соотношение сторон : 16:9
Частота кадров : 23,976 кадра/сек
Цветовое пространство : YUV
Субдискретизация насыщенности : 4:2:0
Битовая глубина : 8 бит
Тип развёртки : Прогрессивная
Бит/(Пиксели*Кадры) : 0.149
Размер потока : 5,02 Гбайт (87%)
Заголовок : Release by AlexKa
Библиотека кодирования : x264 core 125 r2200 999b753
Настройки программы : cabac=1 / ref=4 / deblock=1:0:0 / analyse=0x3:0x133 / me=umh / subme=10 / psy=1 / psy_rd=1.00:0.10 / mixed_ref=1 / me_range=32 / chroma_me=1 / trellis=2 / 8x8dct=1 / cqm=0 / deadzone=21,11 / fast_pskip=0 / chroma_qp_offset=-3 / threads=12 / lookahead_threads=2 / sliced_threads=0 / nr=0 / decimate=0 / interlaced=0 / bluray_compat=0 / constrained_intra=0 / bframes=4 / b_pyramid=2 / b_adapt=2 / b_bias=0 / direct=3 / weightb=1 / open_gop=0 / weightp=2 / keyint=240 / keyint_min=23 / scenecut=40 / intra_refresh=0 / rc_lookahead=60 / rc=2pass / mbtree=1 / bitrate=7389 / ratetol=1.0 / qcomp=0.60 / qpmin=0 / qpmax=69 / qpstep=4 / cplxblur=20.0 / qblur=0.5 / ip_ratio=1.40 / aq=1:1.00
Язык : English

Аудио #1
Идентификатор : 2
Формат : AC-3
Формат/Информация : Audio Coding 3
Расширение режима : CM (complete main)
Идентификатор кодека : A_AC3
Продолжительность : 1 ч. 39 м.
Вид битрейта : Постоянный
Битрейт : 448 Кбит/сек
Каналы : 6 каналов
Расположение каналов : Front: L C R, Side: L R, LFE
Частота : 48,0 КГц
Битовая глубина : 16 бит
Метод сжатия : С потерями
Размер потока : 319 Мбайт (5%)
Заголовок : Rus
Язык : Russian

Аудио #2
Идентификатор : 3
Формат : AC-3
Формат/Информация : Audio Coding 3
Расширение режима : CM (complete main)
Идентификатор кодека : A_AC3
Продолжительность : 1 ч. 39 м.
Вид битрейта : Постоянный
Битрейт : 448 Кбит/сек
Каналы : 6 каналов
Расположение каналов : Front: L C R, Side: L R, LFE
Частота : 48,0 КГц
Битовая глубина : 16 бит
Метод сжатия : С потерями
Размер потока : 319 Мбайт (5%)
Заголовок : Eng
Язык : English

Текст #1
Идентификатор : 4
Формат : UTF-8
Идентификатор кодека : S_TEXT/UTF8
Идентификатор кодека/Информация : UTF-8 Plain Text
Заголовок : Rus
Язык : Russian

Текст #2
Идентификатор : 5
Формат : UTF-8
Идентификатор кодека : S_TEXT/UTF8
Идентификатор кодека/Информация : UTF-8 Plain Text
Заголовок : Eng
Язык : English

Меню
00:00:00.000 : :Chapter 01
00:09:24.855 : :Chapter 02
00:20:07.122 : :Chapter 03
00:30:53.059 : :Chapter 04
00:40:02.316 : :Chapter 05
00:48:46.882 : :Chapter 06
01:00:21.742 : :Chapter 07
01:10:16.420 : :Chapter 08
01:19:18.712 : :Chapter 09
01:30:33.803 : :Chapter 10
01:39:31.256 : :Chapter 11
Скриншоты:


Время раздачи: 24/7


У вас нет необходимых прав для просмотра вложений в этом сообщении.


Вернуться к началу
 Профиль  
Ответить с цитатой  
  • Торрент
Автор: NewsRbk Хэш: ---
Добавлен: 2014-03-24 08:51 Приватный: Нет (DHT включён)
Статус:
---
Размер: 5.76 ГБ (6 183 916 001 байт)
Изменил:
---
Скачали: 0 (Раздающих: 0%)
Причина:
---
Здоровье: 0%
Сидеров: 0 Личеров: 0
Скорость раздачи: 0 байт/сек Скорость скачивания: 0 байт/сек
Последний сидер: Нет Последний личер: Нет
Для скачивания торрента необходимо зарегистрироваться или войти на трекер.
Показать сообщения за:  Поле сортировки  
Начать новую тему Ответить на тему  [ 1 сообщение ] 

Часовой пояс: UTC + 3 часа


Кто сейчас на конференции

Сейчас этот форум просматривают: нет зарегистрированных пользователей и гости: 1


Вы не можете начинать темы
Вы не можете отвечать на сообщения
Вы не можете редактировать свои сообщения
Вы не можете удалять свои сообщения
Вы не можете добавлять вложения

Найти:
Перейти:  
cron
Переместиться наверх