Часовой пояс: UTC + 3 часа




Начать новую тему Ответить на тему  [ 1 сообщение ] 
Автор Сообщение
СообщениеДобавлено: 2014-03-26 00:30 
Не в сети
Аватара пользователя
Раздал: 7.39 ГБ
Скачал: 410.09 МБ
Ратио: 18.440


Зарегистрирован: 2013-03-13 21:22
Сообщения: 8121
Бременские музыканты / Die Bremer Stadtmusikanten

#777
Год выпуска: 2009
Страна: Германия, Norddeutscher Rundfunk
Жанр: детский, семейный, фэнтези
Продолжительность: 00:57:09
Перевод: профессиональный (дублированный) по заказу ЗАО «Первый канал. Всемирная сеть»
Русские субтитры: нет

Режиссёр: Дирк Регель / Dirk Regel

В ролях: Петер Штрибек, Харальд Шмидт, Ханнелоре Эльснер, Бастиан Пастевка, Флориан Мартенс; Гезине Цукровски, Анна Фишер, Йоханнес Цирнер, Михаэль Лот

Описание: однажды осёл, кот, собака и петух, чтобы избежать попадания в суп, сбегают с фермы своих хозяев. Они хотят стать бродячими музыкантами и прославиться на весь мир. В то же время из дома родителей исчезает дочь, которая не желает выходить замуж за немилого, но богатого соседа. Вслед за непокорной девицей отправляется влюбленный в нее слуга. По дороге в Бремен животные встречают молодых влюбленных, веселая компания объединяется и направляется на ночёвку в лес. Там они сталкиваются с шайкой разбойников... ...

Доп. информация: по мотивам сказки братьев Гримм



Трансляция спутникового канала:


Семпл: http://yadi.sk/d/H5rk-4EOGfxVn

Качество видео: DVB
Формат видео: MPEG-PS

Видео: MPEG2 Video, 720x576 (4:3), 25 fps, 3000 kbps
Аудио: MPEG Audiо, 2 сh, 48 kHz, 192 kbps


D:\Бременские музыканты. (2009)_DVB by SLuMeP.mpg
General
Complete name : D:\Бременские музыканты. (2009)_DVB by SLuMeP.mpg
Format : MPEG-PS
File size : 1.29 GiB
Duration : 57mn 9s
Overall bit rate mode : Variable
Overall bit rate : 3 220 Kbps

Video #224
ID : 224 (0xE0)
Format : MPEG Video
Format version : Version 2
Format profile : Main@Main
Format settings, BVOP : Yes
Format settings, Matrix : Custom
Duration : 57mn 9s
Bit rate mode : Variable
Bit rate : 2 963 Kbps
Maximum bit rate : 5 000 Kbps
Width : 720 pixels
Height : 576 pixels
Display aspect ratio : 4:3
Frame rate : 25.000 fps
Standard : PAL
Color space : YUV
Chroma subsampling : 4:2:0
Bit depth : 8 bits
Scan type : Interlaced
Scan order : Top Field First
Compression mode : Lossy
Bits/(Pixel*Frame) : 0.286
Stream size : 1.18 GiB (92%)

Audio #192
ID : 192 (0xC0)
Format : MPEG Audio
Format version : Version 1
Format profile : Layer 2
Duration : 57mn 9s
Bit rate mode : Constant
Bit rate : 192 Kbps
Channel(s) : 2 channels
Sampling rate : 48.0 KHz
Compression mode : Lossy
Stream size : 78.5 MiB (6%)







У вас нет необходимых прав для просмотра вложений в этом сообщении.


Вернуться к началу
 Профиль  
Ответить с цитатой  
  • Торрент
Автор: NewsRbk Хэш: ---
Добавлен: 2014-03-25 23:44 Приватный: Нет (DHT включён)
Статус:
---
Размер: 1.29 ГБ (1 380 345 856 байт)
Изменил:
---
Скачали: 0 (Раздающих: 0%)
Причина:
---
Здоровье: 0%
Сидеров: 0 Личеров: 0
Скорость раздачи: 0 байт/сек Скорость скачивания: 0 байт/сек
Последний сидер: Нет Последний личер: Нет
Для скачивания торрента необходимо зарегистрироваться или войти на трекер.
Показать сообщения за:  Поле сортировки  
Начать новую тему Ответить на тему  [ 1 сообщение ] 

Часовой пояс: UTC + 3 часа


Кто сейчас на конференции

Сейчас этот форум просматривают: нет зарегистрированных пользователей и гости: 1


Вы не можете начинать темы
Вы не можете отвечать на сообщения
Вы не можете редактировать свои сообщения
Вы не можете удалять свои сообщения
Вы не можете добавлять вложения

Найти:
Перейти:  
cron
Переместиться наверх