Часовой пояс: UTC + 3 часа




Начать новую тему Ответить на тему  [ 1 сообщение ] 
Автор Сообщение
СообщениеДобавлено: 2014-04-01 02:19 
Не в сети
Аватара пользователя
Раздал: 7.39 ГБ
Скачал: 410.09 МБ
Ратио: 18.440


Зарегистрирован: 2013-03-13 21:22
Сообщения: 8121
#777
Теодор Рекс / Theodore Rex

Страна: США
Жанр: комедия, фэнтэзи
Год выпуска: 1995
Продолжительность: 01:27:57

Перевод: Авторский (одноголосый закадровый) Сергея Визгунова
Cубтитры: нет
Оригинальная аудиодорожка: английский

Режиссер: Джонатан Бетуэл / Jonathan R. Betuel

В ролях: Вупи Голдберг /Whoopi Goldberg/, Армин Мюллер-Шталь /Armin Mueller-Stahl/, Джульет Ландау /Juliet Landau/, Бад Корт /Bud Cort/, Стивен МакХэтти /Stephen McHattie/, Джек Райли /Jack Riley/, Питер МакКензи /Peter MacKenzie/, Тони Т. Джонсон /Tony T. Johnson/, Джо Даллесандро /Joe Dallesandro/, Эдит Диас, Ричард Раундтри /Richard Roundtree/

Рецензия Михаила Иванова: Миллиардер Кэйн построил гигантский космический корабль, куда хочет поместить всяких зверушек, чтобы они смогли вновь заселить Землю после всемирной катастрофы, но всех людей он с собой в этой новый "ковчег" брать не собирается. Действие, конечно, происходит в далеком будущем, где наряду с людьми живут... разумные, англоговорящие динозавры, выращенные при помощи генной инженерии. Один из них, частный детектив по имени Теодор Рекс, даже стал полицейским. Вместе с отважной и крутой полицейской Вупи Голдберг он вступает в борьбу с разгулом преступности, начав с расследования убийства динозавра. Динозавров изображают люди в хорошо сделанных костюмах и масках, и рассчитана картина на детей от 6 лет и старше.
ИЗ СЕРИИ ЛЮБИМЫЕ ПЕРЕВОДЫ
Качество видео: DVDRip >>Сэмпл
Формат видео: AVI

Видео: 720x544 (1.32:1), 25 fps, XviD build 47 ~1829 kbps avg, 0.19 bit/pixel - рип от geinz
Аудио 1: 48 kHz, AC3 Dolby Digital, 2/0 (L,R) ch, ~224 kbps - перевод Визгунова оцифрован и синхронизирован мной с коллекционной VHS
Аудио 2: 48 kHz, AC3 Dolby Digital, 2/0 (L,R) ch, ~224 kbps - english


Формат : AVI
Формат/Информация : Audio Video Interleave
Размер файла : 1,41 Гбайт
Продолжительность : 1 ч. 27 м.
Общий поток : 2293 Кбит/сек
Название фильма : Theodore Rex (1995)
Программа кодирования : VirtualDubMod 1.5.10.3 | http://www.virtualdub-fr.org || (build 2550/release)
Библиотека кодирования : VirtualDubMod build 2550/release
Правообладатель : sasikainen

Видео
Идентификатор : 0
Формат : MPEG-4 Visual
Профиль формата : Advanced Simple@L5
Параметр BVOP формата : 1
Параметр QPel формата : Нет
Параметр GMC формата : Без точки перехода
Параметр матрицы формата : Выборочная
Идентификатор кодека : XVID
Идентификатор кодека/Подсказка : XviD
Продолжительность : 1 ч. 27 м.
Битрейт : 1830 Кбит/сек
Ширина : 720 пикселей
Высота : 544 пикселя
Соотношение сторон : 4:3
Частота кадров : 25,000 кадров/сек
Цветовое пространство : YUV
Субдискретизация насыщенности : 4:2:0
Битовая глубина : 8 бит
Тип развёртки : Прогрессивная
Метод сжатия : С потерями
Бит/(Пиксели*Кадры) : 0.187
Размер потока : 1,12 Гбайт (80%)
Библиотека кодирования : XviD 1.2.0.dev47 (UTC 2006-11-01)

Аудио #1
Идентификатор : 1
Формат : AC-3
Формат/Информация : Audio Coding 3
Расширение режима : CM (complete main)
Параметр Endianness формата : Big
Идентификатор кодека : 2000
Продолжительность : 1 ч. 27 м.
Вид битрейта : Постоянный
Битрейт : 224 Кбит/сек
Каналы : 2 канала
Расположение каналов : Front: L R
Частота : 48,0 КГц
Битовая глубина : 16 бит
Метод сжатия : С потерями
Размер потока : 141 Мбайт (10%)
Выравнивание : Разделение по промежуткам
Продолжительность промежутка : 40 мс. (1,00 видеокадр)
Время предзагрузки промежутка : 500 мс.
Заголовок : russian

Аудио #2
Идентификатор : 2
Формат : AC-3
Формат/Информация : Audio Coding 3
Расширение режима : CM (complete main)
Параметр Endianness формата : Big
Идентификатор кодека : 2000
Продолжительность : 1 ч. 27 м.
Вид битрейта : Постоянный
Битрейт : 224 Кбит/сек
Каналы : 2 канала
Расположение каналов : Front: L R
Частота : 48,0 КГц
Битовая глубина : 16 бит
Метод сжатия : С потерями
Размер потока : 141 Мбайт (10%)
Выравнивание : Разделение по промежуткам
Продолжительность промежутка : 40 мс. (1,00 видеокадр)
Время предзагрузки промежутка : 500 мс.
Заголовок : english






У вас нет необходимых прав для просмотра вложений в этом сообщении.


Вернуться к началу
 Профиль  
Ответить с цитатой  
  • Торрент
Автор: NewsRbk Хэш: ---
Добавлен: 2014-04-01 02:01 Приватный: Нет (DHT включён)
Статус:
---
Размер: 1.41 ГБ (1 512 439 808 байт)
Изменил:
---
Скачали: 0 (Раздающих: 0%)
Причина:
---
Здоровье: 0%
Сидеров: 0 Личеров: 0
Скорость раздачи: 0 байт/сек Скорость скачивания: 0 байт/сек
Последний сидер: Нет Последний личер: Нет
Для скачивания торрента необходимо зарегистрироваться или войти на трекер.
Показать сообщения за:  Поле сортировки  
Начать новую тему Ответить на тему  [ 1 сообщение ] 

Часовой пояс: UTC + 3 часа


Кто сейчас на конференции

Сейчас этот форум просматривают: нет зарегистрированных пользователей и гости: 1


Вы не можете начинать темы
Вы не можете отвечать на сообщения
Вы не можете редактировать свои сообщения
Вы не можете удалять свои сообщения
Вы не можете добавлять вложения

Найти:
Перейти:  
Переместиться наверх