Часовой пояс: UTC + 3 часа




Начать новую тему Ответить на тему  [ 1 сообщение ] 
Автор Сообщение
СообщениеДобавлено: 2014-04-01 02:24 
Не в сети
Аватара пользователя
Раздал: 7.39 ГБ
Скачал: 410.09 МБ
Ратио: 18.440


Зарегистрирован: 2013-03-13 21:22
Сообщения: 8121
Фантастическая четверка / Fantastic Four
«Prepare for the fantastic»



#777
Страна: США, Германия
Жанр: фантастика, фэнтези, боевик, приключения
Год выпуска: 2005
Продолжительность: 01:45:29


Перевод: Профессиональный (дублированный) | Blu-ray CEE
Оригинальная аудиодорожка: English
Cубтитры: Russian (captions), Russian, English - отдельно


Режиссер: Тим Стори / Tim Story
В ролях: Иоан Граффадд, Джессика Альба, Крис Эванс, Майкл Чиклис, Джулиан МакМахон, Хамиш Линклэйтер, Керри Вашингтон, Лори Холден, Дэвид Паркер, Кевин МакНалти, Мария Меноунос, Майкл Копса, Эндрю Эйрли, Паскаль Хаттон, Дж. Майкл Грэй, Дэвид Ричмонд-Пек, Пенелопа Коррин, Аоника Лорен, Джейсон Шомбинг, Джейсон Диабло, Колин Лоуренс


Описание: Четыре астронавта в далеком космосе попали под действие неизвестных лучей и приобрели каждый свою отдельную суперспособность. После возвращения на Землю четверка начинает активно мешать врагам цивилизации, которые усиленно портят жизнь всего прогрессивного человечества.


IMDB | КиноПоиск | Сэмпл


Качество видео: BDRip | исх. BLU-RAY CEE 1080p
Формат видео: AVI


Видео: 720x304 (2.37:1), 23.976 fps, XviD build 73 ~2057 kbps avg, 0.39 bit/pixel
Аудио №1: 48 kHz, AC3 Dolby Digital, 3/2 (L,C,R,l,r) + LFE ch, ~448 kbps | Профессиональный (дублированный) | Blu-ray CEE
Аудио №2: 48 kHz, AC3 Dolby Digital, 3/2 (L,C,R,l,r) + LFE ch, ~448 kbps | English





General
Complete name : D:\Фильмы\Рипы\Fantastic.Four.2005.BDRip.2.18.Gb.by Fredd Kruger\Fantastic.Four.2005.BDRip.2.18.Gb.by Fredd Kruger.avi
Format : AVI
Format/Info : Audio Video Interleave
File size : 2.19 GiB
Duration : 1h 45mn
Overall bit rate : 2 969 Kbps
Writing application : VirtualDubMod 1.5.10.3 | http://www.virtualdub-fr.org || (build 2550/release)
Writing library : VirtualDubMod build 2550/release

Video
ID : 0
Format : MPEG-4 Visual
Format profile : Advanced Simple@L5
Format settings, BVOP : 1
Format settings, QPel : No
Format settings, GMC : No warppoints
Format settings, Matrix : Custom
Codec ID : XVID
Codec ID/Hint : XviD
Duration : 1h 45mn
Bit rate : 2 059 Kbps
Width : 720 pixels
Height : 304 pixels
Display aspect ratio : 2.35:1
Frame rate : 23.976 fps
Color space : YUV
Chroma subsampling : 4:2:0
Bit depth : 8 bits
Scan type : Progressive
Compression mode : Lossy
Bits/(Pixel*Frame) : 0.392
Stream size : 1.52 GiB (69%)
Writing library : XviD 73

Audio #1
ID : 1
Format : AC-3
Format/Info : Audio Coding 3
Mode extension : CM (complete main)
Format settings, Endianness : Big
Codec ID : 2000
Duration : 1h 45mn
Bit rate mode : Constant
Bit rate : 448 Kbps
Channel count : 6 channels
Channel positions : Front: L C R, Side: L R, LFE
Sampling rate : 48.0 KHz
Bit depth : 16 bits
Compression mode : Lossy
Stream size : 338 MiB (15%)
Alignment : Split accross interleaves
Interleave, duration : 42 ms (1.00 video frame)
Interleave, preload duration : 500 ms

Audio #2
ID : 2
Format : AC-3
Format/Info : Audio Coding 3
Mode extension : CM (complete main)
Format settings, Endianness : Big
Codec ID : 2000
Duration : 1h 45mn
Bit rate mode : Constant
Bit rate : 448 Kbps
Channel count : 6 channels
Channel positions : Front: L C R, Side: L R, LFE
Sampling rate : 48.0 KHz
Bit depth : 16 bits
Compression mode : Lossy
Stream size : 338 MiB (15%)
Alignment : Split accross interleaves
Interleave, duration : 42 ms (1.00 video frame)
Interleave, preload duration : 500 ms










У вас нет необходимых прав для просмотра вложений в этом сообщении.


Вернуться к началу
 Профиль  
Ответить с цитатой  
  • Торрент
Автор: NewsRbk Хэш: ---
Добавлен: 2014-04-01 02:01 Приватный: Нет (DHT включён)
Статус:
---
Размер: 2.19 ГБ (2 349 298 359 байт)
Изменил:
---
Скачали: 0 (Раздающих: 0%)
Причина:
---
Здоровье: 0%
Сидеров: 0 Личеров: 0
Скорость раздачи: 0 байт/сек Скорость скачивания: 0 байт/сек
Последний сидер: Нет Последний личер: Нет
Для скачивания торрента необходимо зарегистрироваться или войти на трекер.
Показать сообщения за:  Поле сортировки  
Начать новую тему Ответить на тему  [ 1 сообщение ] 

Часовой пояс: UTC + 3 часа


Кто сейчас на конференции

Сейчас этот форум просматривают: нет зарегистрированных пользователей и гости: 2


Вы не можете начинать темы
Вы не можете отвечать на сообщения
Вы не можете редактировать свои сообщения
Вы не можете удалять свои сообщения
Вы не можете добавлять вложения

Найти:
Перейти:  
cron
Переместиться наверх