Часовой пояс: UTC + 3 часа




Начать новую тему Ответить на тему  [ 1 сообщение ] 
Автор Сообщение
СообщениеДобавлено: 2014-04-01 02:25 
Не в сети
Аватара пользователя
Раздал: 7.39 ГБ
Скачал: 410.09 МБ
Ратио: 18.440


Зарегистрирован: 2013-03-13 21:22
Сообщения: 8121
Волшебник Макс / Max Magician and the Legend of the Rings

#777
Страна: США
Жанр: фэнтези, приключения
Год выпуска: 2002
Продолжительность: 01:20:00

Перевод: Профессиональный (многоголосый закадровый) СТС
Cубтитры: нет
Оригинальная аудиодорожка: нет
Режиссер: Кевин Саммерфилд / Kevin Summerfield

В ролях: Тимоти Штульц, Кен Митзкович, Эрика Энн, Стивен Бэрри Принц, Грег Коли, Ли Сэвадж, Кевин Кертис, Фернандо Лондоно, Ли Уилкинсон, Джек Бэйкер

Описание: Несмотря на любовь к фокусам и магическим трюкам, Макс в школе не популярен. Одноклассники насмехаются над ним. Но его сосед мистер Тим — настоящий волшебник, и он дает Максу книгу заклинаний, после чего жизнь мальчика круто меняется. Его ждут опасные приключения, в которых он должен спасти сказочный город вместе со всеми его необыкновенными жителями.

Доп. информация: Ограничения по возрасту +6

Сэмпл: http://sendfile.su/921694

Качество видео: SATRip
Формат видео: AVI

Видео: DivX5, 720х576, 16:9, 25 fps, 2 298 Kb
Аудио: MP3, 48 KHz, 192 Kb, 2 ch




ВОЛШЕБНИК МАКС.avi
Format : AVI
Format/Info : Audio Video Interleave
Format profile : OpenDML
File size : 1.40 GiB
Duration : 1h 20mn
Overall bit rate : 2 505 Kbps
Writing application : Lavf53.18.0

Video
ID : 0
Format : MPEG-4 Visual
Format profile : Simple@L1
Format settings, BVOP : No
Format settings, QPel : No
Format settings, GMC : No warppoints
Format settings, Matrix : Default (H.263)
Codec ID : DX50
Codec ID/Hint : DivX 5
Duration : 1h 20mn
Bit rate : 2 298 Kbps
Width : 720 pixels
Height : 576 pixels
Display aspect ratio : 16:9
Frame rate : 25.000 fps
Standard : PAL
Color space : YUV
Chroma subsampling : 4:2:0
Bit depth : 8 bits
Scan type : Progressive
Compression mode : Lossy
Bits/(Pixel*Frame) : 0.222
Stream size : 1.29 GiB (92%)
Writing library : Lavc53.26.0

Audio
ID : 1
Format : MPEG Audio
Format version : Version 1
Format profile : Layer 3
Mode : Joint stereo
Mode extension : MS Stereo
Codec ID : 55
Codec ID/Hint : MP3
Duration : 1h 20mn
Bit rate mode : Constant
Bit rate : 192 Kbps
Channel(s) : 2 channels
Sampling rate : 48.0 KHz
Compression mode : Lossy
Stream size : 110 MiB (8%)
Alignment : Aligned on interleaves
Interleave, duration : 24 ms (0.60 video frame)
Writing library : LAME3.99.5










У вас нет необходимых прав для просмотра вложений в этом сообщении.


Вернуться к началу
 Профиль  
Ответить с цитатой  
  • Торрент
Автор: NewsRbk Хэш: ---
Добавлен: 2014-04-01 02:01 Приватный: Нет (DHT включён)
Статус:
---
Размер: 1.4 ГБ (1 506 683 360 байт)
Изменил:
---
Скачали: 0 (Раздающих: 0%)
Причина:
---
Здоровье: 0%
Сидеров: 0 Личеров: 0
Скорость раздачи: 0 байт/сек Скорость скачивания: 0 байт/сек
Последний сидер: Нет Последний личер: Нет
Для скачивания торрента необходимо зарегистрироваться или войти на трекер.
Показать сообщения за:  Поле сортировки  
Начать новую тему Ответить на тему  [ 1 сообщение ] 

Часовой пояс: UTC + 3 часа


Кто сейчас на конференции

Сейчас этот форум просматривают: нет зарегистрированных пользователей и гости: 1


Вы не можете начинать темы
Вы не можете отвечать на сообщения
Вы не можете редактировать свои сообщения
Вы не можете удалять свои сообщения
Вы не можете добавлять вложения

Найти:
Перейти:  
cron
Переместиться наверх