Часовой пояс: UTC + 3 часа




Начать новую тему Ответить на тему  [ 1 сообщение ] 
Автор Сообщение
СообщениеДобавлено: 2014-04-01 02:26 
Не в сети
Аватара пользователя
Раздал: 7.39 ГБ
Скачал: 410.09 МБ
Ратио: 18.440


Зарегистрирован: 2013-03-13 21:22
Сообщения: 8121
Оборотни / Cursed


#777



Страна: США, Германия
Жанр: Ужасы, Фэнтези, Триллер, Комедия
Год выпуска: 2005
Продолжительность: 01:36:58
Перевод: Профессиональный (полное дублирование)
Перевод: Авторский (одноголосый закадровый) С.Визгунов
Cубтитры: русские
Оригинальная аудиодорожка: английский


Режиссер: Уэс Крэйвен / Wes Craven


В ролях: Кристина Риччи /Christina Ricci/, Джошуа Джексон /Joshua Jackson/, Джесси Айзенберг /Jesse Eisenberg/, Джуди Грир /Judy Greer/, Порша де Росси /Portia de Rossi/, Миа Хэррисон /Mya Harrison/, Шеннон Элизабет /Shannon Elizabeth/, Кристина Анапау /Kristina Anapau/, Майло Вентимилья /Milo Ventimiglia/, Майкл Розенбаум /Michael Rosenbaum/, Дэниэл Эдвард Мора /Daniel Edward Mora/, Скотт Байо /Scott Baio/, Шэшони Холл /Shashawnee Hall/, Крэйг Килборн /Craig Kilborn/, Мишель Крусик /Michelle Krusiec/...


Описание: Оставшиеся в живых после нападения таинственного зверя, Элли и Джимми не сразу поняли, что уже стали другими! И только появившиеся сверхъестественные возможности заставили их поверить в это! Но еще более страшным открытием становится то, что в Лос-Анджелесе, оказывается, они такие не одни!


Релиз от HQ-ViDEO Автор рипа: MECHANICAL ENGINEER


Качество видео: BDRip (Cursed.2005.1080p.BD-Remux.2xRus.Eng.HDCLUB)
Формат видео: AVI

Видео: 704x400 (1.76:1), 23.976 fps, XviD build 64 ~1757 kbps avg, 0.26 bit/pixel
Аудио: 48 kHz, AC3 Dolby Digital, 3/2 (L,C,R,l,r) + LFE ch, ~384 kbps / Дубляж
Аудио: 48 kHz, AC3 Dolby Digital, 3/2 (L,C,R,l,r) + LFE ch, ~384 kbps / С.Визгунов (Отдельно)
Аудио: 48 kHz, AC3 Dolby Digital, 3/2 (L,C,R,l,r) + LFE ch, ~384 kbps / Оригинальная дорожка (Отдельно)



Код:
Format                           : AVI
Format/Info                      : Audio Video Interleave
File size                        : 1.46 GiB
Duration                         : 1h 36mn
Overall bit rate                 : 2 151 Kbps
Movie name                       : Оборотни / Cursed (2005) Theatrical Cut
Director                         : MECHANICAL ENGINEER (BD-Remux)
Writing application              : VirtualDubMod 1.5.10.3 | www.virtualdub-fr.org || (build 2550/release)
Copyright                        : HQ-ViDEO
Comment                          : 18.11.2011

Video
ID                               : 0
Format                           : MPEG-4 Visual
Format profile                   : Advanced Simple@L5
Format settings, BVOP            : Yes
Format settings, QPel            : No
Format settings, GMC             : No warppoints
Format settings, Matrix          : Custom
Codec ID                         : XVID
Codec ID/Hint                    : XviD
Duration                         : 1h 36mn
Bit rate                         : 1 757 Kbps
Width                            : 704 pixels
Height                           : 400 pixels
Display aspect ratio             : 16:9
Frame rate                       : 23.976 fps
Color space                      : YUV
Chroma subsampling               : 4:2:0
Bit depth                        : 8 bits
Scan type                        : Progressive
Bits/(Pixel*Frame)               : 0.260
Stream size                      : 1.19 GiB (82%)
Writing library                  : XviD 64

Audio
ID                               : 1
Format                           : AC-3
Format/Info                      : Audio Coding 3
Mode extension                   : CM (complete main)
Codec ID                         : 2000
Duration                         : 1h 36mn
Bit rate mode                    : Constant
Bit rate                         : 384 Kbps
Channel(s)                       : 6 channels
Channel positions                : Front: L C R, Side: L R, LFE
Sampling rate                    : 48.0 KHz
Bit depth                        : 16 bits
Stream size                      : 266 MiB (18%)
Alignment                        : Split accross interleaves
Interleave, duration             : 42 ms (1.00 video frame)
Interleave, preload duration     : 500 ms















http://rustrek.ru/viewtopic.php?t=2983863
http://screenshotcomparison.com/comparison/50949

http://rustrek.ru/viewtopic.php?t=4158353 на усмотрение модератора, там размер другой и битрейт больше, но есть артефакты.
http://screenshotcomparison.com/comparison/50964








Сообщения из этой темы были выделены в отдельный топик Оффтоп из: Оборотни / Cursed (Уэс Крэйвен / Wes Craven) [2005, США, Германия, Ужасы,... [4604454]

Ювелиp


У вас нет необходимых прав для просмотра вложений в этом сообщении.


Вернуться к началу
 Профиль  
Ответить с цитатой  
  • Торрент
Автор: NewsRbk Хэш: ---
Добавлен: 2014-04-01 02:01 Приватный: Нет (DHT включён)
Статус:
---
Размер: 1.98 ГБ (2 122 708 865 байт)
Изменил:
---
Скачали: 0 (Раздающих: 0%)
Причина:
---
Здоровье: 0%
Сидеров: 0 Личеров: 0
Скорость раздачи: 0 байт/сек Скорость скачивания: 0 байт/сек
Последний сидер: Нет Последний личер: Нет
Для скачивания торрента необходимо зарегистрироваться или войти на трекер.
Показать сообщения за:  Поле сортировки  
Начать новую тему Ответить на тему  [ 1 сообщение ] 

Часовой пояс: UTC + 3 часа


Кто сейчас на конференции

Сейчас этот форум просматривают: нет зарегистрированных пользователей и гости: 1


Вы не можете начинать темы
Вы не можете отвечать на сообщения
Вы не можете редактировать свои сообщения
Вы не можете удалять свои сообщения
Вы не можете добавлять вложения

Найти:
Перейти:  
Переместиться наверх