Часовой пояс: UTC + 3 часа




Начать новую тему Ответить на тему  [ 1 сообщение ] 
Автор Сообщение
СообщениеДобавлено: 2014-04-01 02:27 
Не в сети
Аватара пользователя
Раздал: 7.39 ГБ
Скачал: 410.09 МБ
Ратио: 18.440


Зарегистрирован: 2013-03-13 21:22
Сообщения: 8121
Гарри Поттер и Тайная комната / Harry Potter and the Chamber of Secrets
«Зло вернулось в Хогвартс»



#777
Страна: США , Великобритания , Германия
Жанр: Фэнтези, Детектив, Приключения, Семейный
Год выпуска: 2002
Продолжительность: 02:40:56


Перевод #1: Профессиональный (полное дублирование, CEE)

Оригинальная аудиодорожка: Английский

Cубтитры: Русские (полные, форсированные), Английские (полные) (*srt)


Отдельно:
Перевод #3: Профессиональный (многоголосый закадровый, Студия "Кравец")
Перевод #4: Профессиональный (двухголосый закадровый, Гланц и Королева)


Режиссер: Крис Коламбус / Chris Columbus


В ролях: Дэниэл Рэдклифф, Руперт Гринт, Эмма Уотсон, Том Фелтон, Кеннет Брэна, Бонни Райт, Алан Рикман, Ричард Харрис, Мэгги Смит, Робби Колтрейн и др.


Описание:
Гарри Поттер переходит на второй курс Школы чародейства и волшебства Хогвартс. Эльф Добби предупреждает Гарри об опасности, которая поджидает его там, и просит больше не возвращаться в школу.

Юный волшебник не следует совету эльфа и становится свидетелем таинственных событий, разворачивающихся в Хогвартсе. Вскоре Гарри и его друзья узнают о существовании Тайной Комнаты и сталкиваются с новыми приключениями, пытаясь победить темные силы.


Автор: AngelOfTrue


Качество видео: BDRip-AVC | [HARRY_POTTER_COLLECTION_HDCLUB]
Формат видео: MKV


Видео: 1092x456 (2,40:1), 23,976 fps, x264 ~1810 kbps avg, 0.152 bit/pixel
Аудио #1: AC3 Dolby Digital / 48 KHz / 384 kbps / 3/2 (L,C,R,l,r) + LFE ch| Dub
Аудио #2: AC3 Dolby Digital / 48 KHz / 384 kbps / 3/2 (L,C,R,l,r) + LFE ch| Original (English)

Размер: 2.90 GB (⅔ DVD) - без отдельных аудиодорог!


Отдельно:
Аудио #3: AC3 Dolby Digital / 48 KHz / 384 kbps / 3/2 (L,C,R,l,r) + LFE ch| MVO (Кравец)
Аудио #4: AC3 Dolby Digital / 48 KHz / 384 kbps / 3/2 (L,C,R,l,r) + LFE ch| DVO (Гланц и Королева)












avs [info]: 1092x456p 1:1 @ 2997/125 fps (cfr)
x264 [warning]: --psnr used with psy on: results will be invalid!
x264 [warning]: --tune psnr should be used if attempting to benchmark psnr!
x264 [info]: using SAR=1/1
x264 [info]: using cpu capabilities: MMX2 SSE2Fast SSSE3 SSE4.2 AVX AVX2 FMA3 LZCNT BMI1 BMI2
x264 [info]: profile High, level 3.2

x264 [info]: frame I:2109 Avg QP:17.12 size: 56858 PSNR Mean Y:46.86 U:51.03 V:51.88 Avg:47.73 Global:47.18
x264 [info]: frame P:48434 Avg QP:19.82 size: 18766 PSNR Mean Y:45.50 U:52.31 V:53.15 Avg:46.51 Global:45.83
x264 [info]: frame B:180973 Avg QP:21.96 size: 6384 PSNR Mean Y:44.72 U:51.10 V:52.16 Avg:45.74 Global:45.10
x264 [info]: consecutive B-frames: 1.8% 2.2% 5.5% 25.5% 13.7% 37.5% 3.5% 8.2% 0.7% 0.5% 0.2% 0.5%
x264 [info]: mb I I16..4: 4.4% 82.0% 13.6%
x264 [info]: mb P I16..4: 0.9% 10.3% 1.1% P16..4: 35.2% 37.7% 10.7% 1.3% 0.1% skip: 2.8%
x264 [info]: mb B I16..4: 0.1% 1.0% 0.1% B16..8: 36.6% 18.5% 2.4% direct: 4.2% skip:37.0% L0:42.6% L1:45.5% BI:11.9%
x264 [info]: 8x8 transform intra:82.8% inter:63.4%
x264 [info]: direct mvs spatial:98.9% temporal:1.1%
x264 [info]: coded y,uvDC,uvAC intra: 85.4% 79.7% 51.1% inter: 20.4% 16.2% 4.9%
x264 [info]: i16 v,h,dc,p: 25% 14% 5% 56%
x264 [info]: i8 v,h,dc,ddl,ddr,vr,hd,vl,hu: 11% 8% 6% 10% 13% 13% 13% 12% 13%
x264 [info]: i4 v,h,dc,ddl,ddr,vr,hd,vl,hu: 13% 16% 4% 8% 14% 13% 12% 10% 11%
x264 [info]: i8c dc,h,v,p: 36% 27% 20% 18%
x264 [info]: Weighted P-Frames: Y:14.9% UV:7.5%
x264 [info]: ref P L0: 51.0% 8.2% 16.1% 7.4% 5.4% 4.0% 3.2% 1.8% 1.5% 1.2% 0.2% 0.0%
x264 [info]: ref B L0: 75.7% 12.0% 5.3% 2.5% 1.7% 1.2% 0.9% 0.4% 0.2%
x264 [info]: ref B L1: 93.3% 6.7%
x264 [info]: SSIM Mean Y:0.9807953 (17.166db)
x264 [info]: PSNR Mean Y:44.899 U:51.348 V:52.362 Avg:45.919 Global:45.259 kb/s:1809.59

x264 [total]: encoded 231516 frames, 9.19 fps, 1809.59 kb/s







Формат : Matroska
Версия формата : Version 4 / Version 2
Размер файла : 2,90 Гбайт
Продолжительность : 2 ч. 40 м.
Общий поток : 2580 Кбит/сек
Дата кодирования : UTC 2013-11-13 15:39:56
Программа кодирования : mkvmerge v6.1.0 ('Old Devil') built on Mar 4 2013 09:10:42
Библиотека кодирования : libebml v1.3.0 + libmatroska v1.4.0

Видео
Идентификатор : 1
Формат : AVC
Формат/Информация : Advanced Video Codec
Профиль формата : High@L3.2
Параметр CABAC формата : Да
Параметр ReFrames формата : 10 кадров
Идентификатор кодека : V_MPEG4/ISO/AVC
Продолжительность : 2 ч. 40 м.
Битрейт : 1810 Кбит/сек
Ширина : 1092 пикселя
Высота : 456 пикселей
Соотношение сторон : 2,40:1
Режим частоты кадров : Постоянный
Частота кадров : 23,976 кадра/сек
Цветовое пространство : YUV
Субдискретизация насыщенности : 4:2:0
Битовая глубина : 8 бит
Тип развёртки : Прогрессивная
Бит/(Пиксели*Кадры) : 0.152
Размер потока : 1,98 Гбайт (68%)
Заголовок : Harry.Potter.And.The.Chamber.Of.Secrets.2002.DUAL.BDRip-AVC.AC3.-AngelOfTrue
Библиотека кодирования : x264 core 130 r2273 b3065e6
Настройки программы : cabac=1 / ref=10 / deblock=1:-3:-2 / analyse=0x3:0x133 / me=umh / subme=11 / psy=1 / psy_rd=1.00:0.10 / mixed_ref=1 / me_range=32 / chroma_me=1 / trellis=2 / 8x8dct=1 / cqm=0 / deadzone=21,11 / fast_pskip=0 / chroma_qp_offset=-3 / threads=6 / lookahead_threads=1 / sliced_threads=0 / nr=0 / decimate=0 / interlaced=0 / bluray_compat=0 / constrained_intra=0 / bframes=11 / b_pyramid=2 / b_adapt=2 / b_bias=0 / direct=3 / weightb=1 / open_gop=0 / weightp=2 / keyint=250 / keyint_min=23 / scenecut=40 / intra_refresh=0 / rc=2pass / mbtree=0 / bitrate=1810 / ratetol=1.0 / qcomp=0.65 / qpmin=10 / qpmax=51 / qpstep=4 / cplxblur=20.0 / qblur=0.5 / ip_ratio=1.35 / pb_ratio=1.25 / aq=2:1.00
Язык : Russian
Default : Да
Forced : Нет

Аудио #1
Идентификатор : 2
Формат : AC-3
Формат/Информация : Audio Coding 3
Расширение режима : CM (complete main)
Параметр Endianness формата : Big
Идентификатор кодека : A_AC3
Продолжительность : 2 ч. 40 м.
Вид битрейта : Постоянный
Битрейт : 384 Кбит/сек
Каналы : 6 каналов
Расположение каналов : Front: L C R, Side: L R, LFE
Частота : 48,0 КГц
Битовая глубина : 16 бит
Метод сжатия : С потерями
Размер потока : 442 Мбайт (15%)
Заголовок : Dub
Язык : Russian
Default : Да
Forced : Нет

Аудио #2
Идентификатор : 3
Формат : AC-3
Формат/Информация : Audio Coding 3
Расширение режима : CM (complete main)
Параметр Endianness формата : Big
Идентификатор кодека : A_AC3
Продолжительность : 2 ч. 40 м.
Вид битрейта : Постоянный
Битрейт : 384 Кбит/сек
Каналы : 6 каналов
Расположение каналов : Front: L C R, Side: L R, LFE
Частота : 48,0 КГц
Битовая глубина : 16 бит
Метод сжатия : С потерями
Размер потока : 442 Мбайт (15%)
Заголовок : Original (English)
Язык : English
Default : Нет
Forced : Нет

Текст #1
Идентификатор : 4
Формат : UTF-8
Идентификатор кодека : S_TEXT/UTF8
Идентификатор кодека/Информация : UTF-8 Plain Text
Заголовок : Russian (for)
Язык : Russian
Default : Да
Forced : Да

Текст #2
Идентификатор : 5
Формат : UTF-8
Идентификатор кодека : S_TEXT/UTF8
Идентификатор кодека/Информация : UTF-8 Plain Text
Заголовок : Russian (full)
Язык : Russian
Default : Нет
Forced : Нет

Текст #3
Идентификатор : 6
Формат : UTF-8
Идентификатор кодека : S_TEXT/UTF8
Идентификатор кодека/Информация : UTF-8 Plain Text
Заголовок : English (full)
Язык : English
Default : Нет
Forced : Нет




















Дополнительная информация:



Приятного вам просмотра!


У вас нет необходимых прав для просмотра вложений в этом сообщении.


Вернуться к началу
 Профиль  
Ответить с цитатой  
  • Торрент
Автор: NewsRbk Хэш: ---
Добавлен: 2014-04-01 02:01 Приватный: Нет (DHT включён)
Статус:
---
Размер: 3.76 ГБ (4 040 102 669 байт)
Изменил:
---
Скачали: 0 (Раздающих: 0%)
Причина:
---
Здоровье: 0%
Сидеров: 0 Личеров: 0
Скорость раздачи: 0 байт/сек Скорость скачивания: 0 байт/сек
Последний сидер: Нет Последний личер: Нет
Для скачивания торрента необходимо зарегистрироваться или войти на трекер.
Показать сообщения за:  Поле сортировки  
Начать новую тему Ответить на тему  [ 1 сообщение ] 

Часовой пояс: UTC + 3 часа


Кто сейчас на конференции

Сейчас этот форум просматривают: нет зарегистрированных пользователей и гости: 1


Вы не можете начинать темы
Вы не можете отвечать на сообщения
Вы не можете редактировать свои сообщения
Вы не можете удалять свои сообщения
Вы не можете добавлять вложения

Найти:
Перейти:  
cron
Переместиться наверх