Часовой пояс: UTC + 3 часа




Начать новую тему Ответить на тему  [ 1 сообщение ] 
Автор Сообщение
СообщениеДобавлено: 2011-05-09 20:33 
Не в сети
Администратор
Администратор
Аватара пользователя
Раздал: 51.58 ТБ
Скачал: 620.08 ГБ
Ратио: 85.182


Зарегистрирован: 2010-11-09 02:24
Сообщения: 44619
Откуда: Земля Санникова
#777

Страна: Южная Корея
Жанр: Историко-военная драма
Год выпуска: 2011
Продолжительность: 01:50:10
Перевод: Авторский (одноголосый закадровый) @PD
Cубтитры: нет
Режиссер: Пак Хун-чжун / Park Hoon-Jung
В ролях: Пак Хи-сун / Park Hee-Soon, Чжин Гу / Jin Goo, Ко Чан-сок / Ko Chang-Seok, Ким Кап-су / Kim Kap-Soo

Описание: Китайская Маньчжурия, 1619 год. Шел 11-й год правления короля Чосона Гван Хе-гуна. После жестокого сражения, которое больше походило на кровавую бойню трое военных, генерал армии Чосона и его друг, командир подчиненного ему подразделения, а также один из рядовых солдат покинули поле битвы до конца боя, для того чтобы остаться в живых. По дороге домой всех трех застает жестокая пурга. И единственным спасением для них оказался постоялый двор, на котором останавливались купцы, торговавшие между Чосоном и Минь...

Сэмпл для оценки качества видео и звука

Качество видео: DVDRip (WEB DL)
Формат видео: AVI
Видео: 720x304 (2.37:1), 23.976 fps, XviD MPEG-4 ~1372 kbps avg, 0.26 bit/pixel
Аудио: 48 kHz, AC3 Dolby Digital, 3/2 (L,C,R,l,r) + LFE ch, ~384.00 kbps avg

P.S. Большая просьба к тем, кому не нравится голос, стиль переводчика или сами переводы - не сорите в топике.
Смотрите фильмы с переводами тех мастеров, которые вам нравятся. У вас всегда есть право выбора! Удачи всем!


Complete name : Решающая схватка - The Showdown (2011).avi
Format : AVI
Format/Info : Audio Video Interleave
File size : 1.36 GiB
Duration : 1h 50mn
Overall bit rate : 1 766 Kbps
Movie name : Решающая схватка - The Showdown (2011)
Релиз : @PD & KAMO
Genre : Military & War
Writing application : VirtualDubMod 1.5.10.1 (build 2366/release)
Original source form/Name : Movie

Video
ID : 0
Format : MPEG-4 Visual
Format profile : Advanced Simple@L5
Format settings, BVOP : Yes
Format settings, QPel : No
Format settings, GMC : No warppoints
Format settings, Matrix : Default (H.263)
Muxing mode : Packed bitstream
Codec ID : XVID
Codec ID/Hint : XviD
Duration : 1h 50mn
Bit rate : 1 373 Kbps
Width : 720 pixels
Height : 304 pixels
Display aspect ratio : 2.35:1
Frame rate : 23.976 fps
Color space : YUV
Chroma subsampling : 4:2:0
Bit depth : 8 bits
Scan type : Progressive
Bits/(Pixel*Frame) : 0.262
Stream size : 1.06 GiB (78%)
Writing library : XviD 1.1.2 (UTC 2006-11-01)

Audio
ID : 1
Format : AC-3
Format/Info : Audio Coding 3
Mode extension : CM (complete main)
Codec ID : 2000
Duration : 1h 50mn
Bit rate mode : Constant
Bit rate : 384 Kbps
Channel(s) : 6 channels
Channel positions : Front: L C R, Side: L R, LFE
Sampling rate : 48.0 KHz
Bit depth : 16 bits
Video delay : 26ms
Stream size : 303 MiB (22%)
Alignment : Split accross interleaves
Interleave, duration : 42 ms (1.00 video frame)
Interleave, preload duration : 500 ms





У вас нет необходимых прав для просмотра вложений в этом сообщении.


Вернуться к началу
 Профиль  
Ответить с цитатой  
  • Торрент
Автор: oartemka178 Хэш: ---
Добавлен: 2011-05-09 20:33 Приватный: Нет (DHT включён)
Статус:
---
Размер: 1.36 ГБ (1 459 398 656 байт)
Изменил:
---
Скачали: 0 (Раздающих: 0%)
Причина:
---
Здоровье: 0%
Сидеров: 0 Личеров: 0
Скорость раздачи: 0 байт/сек Скорость скачивания: 0 байт/сек
Последний сидер: Нет Последний личер: Нет
Для скачивания торрента необходимо зарегистрироваться или войти на трекер.
Показать сообщения за:  Поле сортировки  
Начать новую тему Ответить на тему  [ 1 сообщение ] 

Часовой пояс: UTC + 3 часа


Кто сейчас на конференции

Сейчас этот форум просматривают: нет зарегистрированных пользователей и гости: 1


Вы не можете начинать темы
Вы не можете отвечать на сообщения
Вы не можете редактировать свои сообщения
Вы не можете удалять свои сообщения
Вы не можете добавлять вложения

Найти:
Перейти:  
Переместиться наверх