Часовой пояс: UTC + 3 часа




Начать новую тему Ответить на тему  [ 1 сообщение ] 
Автор Сообщение
СообщениеДобавлено: 2011-11-16 21:58 
Не в сети
Аватара пользователя
Раздал: 1.56 ТБ
Скачал: 3.69 ГБ
Ратио: 431.711


Зарегистрирован: 2011-01-16 12:39
Сообщения: 2464
Татарская дочь / Урсус и татарская девочка / Дикие орды / Ursus and the Tartar Princess / Ursus e la ragazza tartara / La fille des Tartares / Tartar Invasion / Die Horden des Khan
#777Страна: Италия, Франция
Жанр: История, Приключения, Драма
Год выхода: 1961
Продолжительность: 1 ч. 20 мин.
Перевод: Одноголосый закадровый
Оригинальная аудиодорожка: английский

Режиссёр: Ремиджо Дель Гроссо / Remigio Del Grosso

В ролях:
Джо Робинсон, Йоко Тани, Аким Тамирофф, Мария Грация Спина, Ролан Лезафр, Этторе Манни, Антонио Пиретти, Том Феллеги, Андреа Аурели и др.

Описание:
Вторая половина XVII века. Земли Речи Посполитой подвергаются набегам татар. Урсус, в составе отряда разведчиков под командованием князя Стефана, отправляется на поиски сына, захваченного татарами. Отряд попадает в плен. В плену князь Стефан встречает дочь хана Сулеймана, которая в него влюбляется и видя стойкость пленников становится христианкой...
Пройдя все испытания, Урсус с найденным сыном и князь Стефан с принцессой, обретают свободу...

Доп. информация:
DVDrip найден в сети. Оригинальные аудио и видео не редактировались.
Русский перевод взят с раздачи VHSrip-а и синхронизирован с видео.
Аудио 1 - русский, без перевода (00:55:31:21-00:55:37:08) и (00:56:22:00-00:56:28:00)
Аудио 2 - английский
IMDB
http://www.imdb.com/title/tt0056641/

Сэмпл: http://multi-up.com/570141

Качество: DVDRip
Формат видео: AVI
Видео: XviD, 704x380 (1.85:1), 25 fps, 1998 kbps
Аудио: MPEG Layer 3, 48 kHz, 192.00 kbps, 2 канала
Аудио 2: MPEG Layer 3, 48 kHz, 128.00 kbps, 2 канала
[br][/br]
Формат: AVI
Формат/Информация: Audio Video Interleave
Размер файла: 1,32 Гбайт
Продолжительность: 1 ч. 20 м.
Общий поток: 2334 Кбит/сек
Программа кодирования: VirtualDubMod 1.5.10.2 (build 2540/release)
Библиотека кодирования: VirtualDubMod build 2540/release
Видео
Идентификатор: 0
Формат: MPEG-4 Visual
Профиль формата: Simple@L3
Параметр BVOP формата: Нет
Параметр QPel формата: Нет
Параметр GMC формата: Без точки перехода
Параметр матрицы формата: Default (H.263)
Идентификатор кодека: XVID
Идентификатор кодека/Подсказка: XviD
Продолжительность: 1 ч. 20 м.
Битрейт: 1999 Кбит/сек
Ширина: 704 пикс.
Высота: 380 пикс.
Соотношение сторон: 1,853
Частота кадров: 25,000 кадр/сек
Цветовое пространство: YUV
Подвыборка цветности: 4:2:0
Битовая глубина: 8 бит
Тип развёртки: Прогрессивная
Метод сжатия: С потерями
Бит/(Пиксели*Кадры): 0.299
Размер потока: 1,13 Гбайт (86%)
Библиотека кодирования: XviD 1.2.1 (UTC 2008-12-04)
Аудио #1
Идентификатор: 1
Формат: MPEG Audio
Версия формата: Version 1
Профиль формата: Layer 3
Режим: Joint stereo
Расширение режима: MS Stereo
Идентификатор кодека: 55
Идентификатор кодека/Подсказка: MP3
Продолжительность: 1 ч. 20 м.
Вид битрейта: Постоянный
Битрейт: 192 Кбит/сек
Канал(ы): 2 канала(ов)
Частота: 48,0 КГц
Метод сжатия: С потерями
Размер потока: 111 Мбайт (8%)
Выравнивание: Соединение по промежуткам
Продолжительность промежутка: 40 мс. (1,00 видеокадр)
Время предзагрузки промежутка: 504 ms
Аудио #2
Идентификатор: 2
Формат: MPEG Audio
Идентификатор кодека: 55
Идентификатор кодека/Подсказка: MP3
Продолжительность: 1 ч. 20 м.
Битрейт: 128 Кбит/сек
Канал(ы): 2 канала(ов)
Частота: 48,0 КГц
Метод сжатия: С потерями
Размер потока: 74,1 Мбайт (5%)
Выравнивание: Разделение по промежуткам
Продолжительность промежутка: 40 мс. (1,00 видеокадр)
Время предзагрузки промежутка: 504 ms





Раздача мультитрекерная, при нуле сидируемых можете смело вставать на закачку!


У вас нет необходимых прав для просмотра вложений в этом сообщении.


Вернуться к началу
 Профиль  
Ответить с цитатой  
  • Торрент
Автор: qwerty90 Хэш: ---
Добавлен: 2011-11-16 21:58 Приватный: Нет (DHT включён)
Статус:
---
Размер: 1.32 ГБ (1 415 770 112 байт)
Изменил:
---
Скачали: 3 (Раздающих: 0%)
Причина:
---
Здоровье: 0%
Сидеров: 0 Личеров: 0
Скорость раздачи: 0 байт/сек Скорость скачивания: 0 байт/сек
Последний сидер: Нет Последний личер: Нет
Для скачивания торрента необходимо зарегистрироваться или войти на трекер.
Показать сообщения за:  Поле сортировки  
Начать новую тему Ответить на тему  [ 1 сообщение ] 

Часовой пояс: UTC + 3 часа


Кто сейчас на конференции

Сейчас этот форум просматривают: нет зарегистрированных пользователей и гости: 1


Вы не можете начинать темы
Вы не можете отвечать на сообщения
Вы не можете редактировать свои сообщения
Вы не можете удалять свои сообщения
Вы не можете добавлять вложения

Найти:
Перейти:  
cron
Переместиться наверх