Часовой пояс: UTC + 3 часа




Начать новую тему Ответить на тему  [ 1 сообщение ] 
Автор Сообщение
СообщениеДобавлено: 2011-12-23 21:56 
Не в сети
Аватара пользователя
Раздал: 1.56 ТБ
Скачал: 3.69 ГБ
Ратио: 431.711


Зарегистрирован: 2011-01-16 12:39
Сообщения: 2464
Война крестоносцев / Последняя долина / The Last Valley


#777Информация о Фильме
Страна: США, Великобритания
Год выпуска: 1970
Жанр: исторический
Продолжительность: 02:05:22
Перевод: Профессиональный (многоголосый закадровый)
Режиссёр: Джеймс Клавелл / James Clavell
В ролях: Майкл Кейн, Омар Шариф, Флоринда Болкан, Найджел Дэвенпорт, Пер Оскарссон, Артур О’Коннелл, Йорго Воягис, Мигель Алехандро, Кристиан Робертс

Краткое содержание: В 1618 году в Европе разразился один из крупнейших за всю историю человечества межрелигиозный конфликт, получивший название Тридцатилетняя война. Это была война между католиками и протестантами. В этой неустанной погоне за властью главы европейских государств и княжеств придерживались тех сторон, которые были выгодны им политически. Во имя своей выгоды они подвергали всю Европу ужасам войны. Одна деревня сжигалась дотла, а в отместку за нее уничтожались другие селения, а затем и города, и так до бесконечности, пока по прошествии десятка лет конфликт выродился в банальнейший разбой и массовое убийство мирных жителей.Бывший учитель Вогель, потеряв в таких религиозных пожарищах семью, странствует по Германии, пытаясь спастись. Повсюду голод, разруха, свирепствует чума. Неожиданно он попадает в нетронутую войной деревню, затерянную в одной из долин Альп. Но и сюда добралась группа наемников ландскнехтов под предводительством Капитана. Эта разномастная шайка, состоящая из воров, разбойников и убийц всех вероисповеданий, в поисках добычи грабит и сжигает до тла все селения, попадающиеся на их пути.Вогель уговаривает Капитана не сжигать деревню, а договориться со старостой деревни и заключить мир, чтобы перезимовать всем вместе в тепле и сытости. Взамен за гостеприимство сельчан солдаты могут защитить их от возможных напрошенных гостей, которые могут найти путь к деревне. Капитан счел идею Вогеля разумной, и спокойная зима настала в долине. Но на этот райский уголок претендует много охотников, да и религиозные распри вокруг не утихают

Информация о Файле
Качество: DVDRip
Контейнер: AVI
Видео: 656x288 (2.28:1), 25 fps, XviD MPEG-4 ~713 kbps avg, 0.15 bit/pixel
Аудио: 48 kHz, MPEG Layer 3, 2 ch, ~112.00 kbps avg[br][/br]
Format: AVI
Format/Info: Audio Video Interleave
File size: 749 MiB
Duration: 2h 5mn
Overall bit rate: 835 Kbps
Writing application: FairUse Wizard
Writing library: The best and REALLY easy backup tool
Video
ID: 0
Format: MPEG-4 Visual
Format profile: Advanced Simple@L5
Format settings, BVOP: Yes
Format settings, QPel: No
Format settings, GMC: No warppoints
Format settings, Matrix: Default (H.263)
Muxing mode: Packed bitstream
Codec ID: XVID
Codec ID/Hint: XviD
Duration: 2h 5mn
Bit rate: 714 Kbps
Width: 656 pixels
Height: 288 pixels
Display aspect ratio: 2.25:1
Frame rate: 25.000 fps
Resolution: 8 bits
Colorimetry: 4:2:0
Scan type: Progressive
Bits/(Pixel*Frame): 0.151
Stream size: 640 MiB (85%)
Writing library: XviD 1.1.0 (UTC 2005-11-22)
Audio
ID: 1
Format: MPEG Audio
Format version: Version 1
Format profile: Layer 3
Mode: Joint stereo
Format_Settings_ModeExtension: MS Stereo
Codec ID: 55
Codec ID/Hint: MP3
Duration: 2h 5mn
Bit rate mode: Constant
Bit rate: 112 Kbps
Channel(s): 2 channels
Sampling rate: 48.0 KHz
Stream size: 100 MiB (13%)
Alignment: Aligned on interleaves
Interleave, duration: 40 ms (1.00 video frame)
Interleave, preload duration: 504 ms
Writing library: LAME3.97b
Encoding settings: -m j -V 4 -q 2 -lowpass 16 -b 112

Раздача мультитрекерная, при нуле сидируемых можете смело вставать на закачку!


У вас нет необходимых прав для просмотра вложений в этом сообщении.


Вернуться к началу
 Профиль  
Ответить с цитатой  
  • Торрент
Автор: qwerty90 Хэш: ---
Добавлен: 2011-12-23 21:56 Приватный: Нет (DHT включён)
Статус:
---
Размер: 749.21 МБ (785 598 464 байт)
Изменил:
---
Скачали: 0 (Раздающих: 0%)
Причина:
---
Здоровье: 0%
Сидеров: 0 Личеров: 0
Скорость раздачи: 0 байт/сек Скорость скачивания: 0 байт/сек
Последний сидер: Нет Последний личер: Нет
Для скачивания торрента необходимо зарегистрироваться или войти на трекер.
Показать сообщения за:  Поле сортировки  
Начать новую тему Ответить на тему  [ 1 сообщение ] 

Часовой пояс: UTC + 3 часа


Кто сейчас на конференции

Сейчас этот форум просматривают: нет зарегистрированных пользователей и гости: 1


Вы не можете начинать темы
Вы не можете отвечать на сообщения
Вы не можете редактировать свои сообщения
Вы не можете удалять свои сообщения
Вы не можете добавлять вложения

Найти:
Перейти:  
cron
Переместиться наверх