Часовой пояс: UTC + 3 часа




Начать новую тему Ответить на тему  [ 1 сообщение ] 
Автор Сообщение
СообщениеДобавлено: 2012-03-30 21:56 
Не в сети
Хранители
Хранители
Аватара пользователя
Раздал: 3.51 ГБ
Скачал: 1.74 ГБ
Ратио: 2.024


Зарегистрирован: 2011-11-08 20:09
Сообщения: 12155
Новая земля / Nova zembla
#777
Страна:Нидерланды
Жанр: история
Год выпуска: 2011
Продолжительность: 01:49:07
Перевод: Любительский (двухголосый закадровый) + Одноголосый закадровый
Cубтитры: нет
Режиссер: Рейну Урлеманс / Reinout Oerlemans
В ролях: Даутцен Крёз, Дерек де Линт, Ян Деклер, Сэмми Шилт, Виктор Рейнир, Тюн Куилбур, Бас Кейзер, Мэдс Уиттерманс, Иуда Гослинга
Описание: В 1594—1597 годах Баренц совершил три экспедиции в Арктику для поиска Северо-Восточного прохода в Тихий океан, открыв и описав берега Новой Земли. Во время последнего плавания корабль Баренца затёрло во льдах, и команде пришлось остаться на зимовку в условиях полярной ночи на побережье архипелага. Многие члены команды, в их числе сам Баренц, не выдержали лишений арктической зимы и погибли. Об этом путешествии повествует дневник одного из членов команды — Херрита де Фейра. Дневники де Фейра сегодня воспринимаются как источник научного материала, а голландские дети изучают историю мореплавания Баренца по гравюрам из дневника моряка.

CЭМПЛ
Качество видео: BDRip-AVC (Nova.Zembla.2011.2D3D.1080p.Blu-ray.AVC.DTS-HD.MA.5.1)
Формат видео: MKV
Видео: 1194x500 (2.40:1), 23.976 fps, AVC, ~1702 Kbps, 0.119 bits/pixel
Audio #1: , 48.0 KHz, AC3, 6 ch, 384 Kbps - DVO
Audio #2: , 48.0 KHz, AC3, 6 ch, 384 Kbps - VO
Audio #3: , 48.0 KHz, AC3, 6 ch, 384 Kbps - ENG
General
Unique ID : 221483203908201819904189172423341624616 (0xA6A01D0B9ED183B58111A9C87293CD28)
Complete name : E:\Downloads\Novaya zemlia.chopper887.mkv
Format : Matroska
Format version : Version 2
File size : 2.18 GiB
Duration : 1h 49mn
Overall bit rate : 2 854 Kbps
Movie name : Novaya zemlia.chopper887
Encoded date : UTC 2012-03-29 18:09:20
Writing application : mkvmerge v4.8.0 ('I Got The...') сборка от May 24 2011 03:12:58
Writing library : libebml v1.2.0 + libmatroska v1.1.0
Video
ID : 1
Format : AVC
Format/Info : Advanced Video Codec
Format profile : High@L4.1
Format settings, CABAC : Yes
Format settings, ReFrames : 9 frames
Codec ID : V_MPEG4/ISO/AVC
Duration : 1h 49mn
Bit rate : 1 702 Kbps
Width : 1 194 pixels
Height : 500 pixels
Display aspect ratio : 2.40:1
Frame rate : 23.976 fps
Color space : YUV
Chroma subsampling : 4:2:0
Bit depth : 8 bits
Scan type : Progressive
Bits/(Pixel*Frame) : 0.119
Stream size : 1.25 GiB (58%)
Title : Novaya zemlia.chopper887
Writing library : x264 core 120 r2164 da19765
Encoding settings : cabac=1 / ref=9 / deblock=1:-2:-1 / analyse=0x3:0x133 / me=umh / subme=11 / psy=1 / psy_rd=1.10:0.10 / mixed_ref=1 / me_range=32 / chroma_me=1 / trellis=2 / 8x8dct=1 / cqm=0 / deadzone=21,11 / fast_pskip=0 / chroma_qp_offset=-3 / threads=12 / sliced_threads=0 / nr=0 / decimate=1 / interlaced=0 / bluray_compat=0 / constrained_intra=0 / bframes=8 / b_pyramid=2 / b_adapt=2 / b_bias=0 / direct=3 / weightb=1 / open_gop=0 / weightp=2 / keyint=240 / keyint_min=23 / scenecut=40 / intra_refresh=0 / rc_lookahead=80 / rc=2pass / mbtree=1 / bitrate=1702 / ratetol=1.0 / qcomp=0.60 / qpmin=10 / qpmax=51 / qpstep=4 / cplxblur=20.0 / qblur=0.5 / ip_ratio=1.40 / aq=1:1.00
Language : English
Default : Yes
Forced : No
Audio #1
ID : 2
Format : AC-3
Format/Info : Audio Coding 3
Mode extension : CM (complete main)
Codec ID : A_AC3
Duration : 1h 49mn
Bit rate mode : Constant
Bit rate : 384 Kbps
Channel(s) : 6 channels
Channel positions : Front: L C R, Side: L R, LFE
Sampling rate : 48.0 KHz
Bit depth : 16 bits
Compression mode : Lossy
Stream size : 300 MiB (13%)
Title : DVO
Default : Yes
Forced : No
Audio #2
ID : 3
Format : AC-3
Format/Info : Audio Coding 3
Mode extension : CM (complete main)
Codec ID : A_AC3
Duration : 1h 49mn
Bit rate mode : Constant
Bit rate : 384 Kbps
Channel(s) : 6 channels
Channel positions : Front: L C R, Side: L R, LFE
Sampling rate : 48.0 KHz
Bit depth : 16 bits
Compression mode : Lossy
Stream size : 300 MiB (13%)
Title : VO
Default : No
Forced : No
Audio #3
ID : 4
Format : AC-3
Format/Info : Audio Coding 3
Mode extension : CM (complete main)
Codec ID : A_AC3
Duration : 1h 49mn
Bit rate mode : Constant
Bit rate : 384 Kbps
Channel(s) : 6 channels
Channel positions : Front: L C R, Side: L R, LFE
Sampling rate : 48.0 KHz
Bit depth : 16 bits
Compression mode : Lossy
Stream size : 300 MiB (13%)
Title : ENG
Default : No
Forced : No



Фильм основан на реальных событиях


У вас нет необходимых прав для просмотра вложений в этом сообщении.


Вернуться к началу
 Профиль  
Ответить с цитатой  
  • Торрент
Автор: Релизер Хэш: ---
Добавлен: 2012-03-30 22:23 Приватный: Нет (DHT включён)
Статус:
---
Размер: 2.18 ГБ (2 335 918 966 байт)
Изменил:
---
Скачали: 0 (Раздающих: 0%)
Причина:
---
Здоровье: 0%
Сидеров: 0 Личеров: 0
Скорость раздачи: 0 байт/сек Скорость скачивания: 0 байт/сек
Последний сидер: Нет Последний личер: Нет
Для скачивания торрента необходимо зарегистрироваться или войти на трекер.
Показать сообщения за:  Поле сортировки  
Начать новую тему Ответить на тему  [ 1 сообщение ] 

Часовой пояс: UTC + 3 часа


Кто сейчас на конференции

Сейчас этот форум просматривают: нет зарегистрированных пользователей и гости: 1


Вы не можете начинать темы
Вы не можете отвечать на сообщения
Вы не можете редактировать свои сообщения
Вы не можете удалять свои сообщения
Вы не можете добавлять вложения

Найти:
Перейти:  
Переместиться наверх