Часовой пояс: UTC + 3 часа




Начать новую тему Ответить на тему  [ 1 сообщение ] 
Автор Сообщение
СообщениеДобавлено: 2013-01-11 14:41 
Не в сети
Администратор
Администратор
Аватара пользователя
Раздал: 51.58 ТБ
Скачал: 620.08 ГБ
Ратио: 85.182


Зарегистрирован: 2010-11-09 02:24
Сообщения: 44619
Откуда: Земля Санникова
#777

Название: Распутин
Оригинальное название: Raspoutine
Год выпуска: 2011
Жанр: Исторический, драма, биография
Выпущено: Франция, Россия, B-Tween

Режиссер: Жозе Дайан

В ролях: Жерар Депардьё, Владимир Машков, Фанни Ардан, Анна Михалкова, Ирина Алфёрова, Филипп Янковский, Данила Козловский, Константин Хабенский

Описание: Фильм посвящен последним годам жизни Григория Распутина, его взаимоотношениям с семьей последнего русского императора Николая II.



Продолжительность: 01:42:00
Перевод: Субтитры

Качество: DVDRip
Формат: AVI
Видео: XviD, 795 Кбит/с, 608x344
Аудио Fra: MP3, 2 ch, 112 Кбит/с

Общее
Полное имя : D:RASPOUTINE_2011Raspoutine_2011.avi
Формат : AVI
Формат/Информация : Audio Video Interleave
Размер файла : 670 Мбайт
Продолжительность : 1 ч. 42 м.
Общий поток : 917 Кбит/сек
Программа кодирования : VirtualDubMod 1.5.10.3 Fr | http://www.virtualdub-fr.org || (build 2550/release)
Библиотека кодирования : VirtualDubMod build 2550/release

Видео
Идентификатор : 0
Формат : MPEG-4 Visual
Профиль формата : Advanced Simple@L5
Параметр BVOP формата : 2
Параметр QPel формата : Нет
Параметр GMC формата : Без точки перехода
Параметр матрицы формата : Default (H.263)
Режим смешивания : Сжатый битовый поток
Идентификатор кодека : XVID
Идентификатор кодека/Подсказка : XviD
Продолжительность : 1 ч. 42 м.
Битрейт : 795 Кбит/сек
Ширина : 608 пикс.
Высота : 344 пикс.
Соотношение сторон : 16:9
Частота кадров : 25,000 кадр/сек
Цветовое пространство : YUV
Подвыборка цветности : 4:2:0
Битовая глубина : 8 бит
Тип развёртки : Прогрессивная
Метод сжатия : С потерями
Бит/(Пиксели*Кадры) : 0.152
Размер потока : 581 Мбайт (87%)
Библиотека кодирования : XviD 64

Аудио
Идентификатор : 1
Формат : MPEG Audio
Версия формата : Version 1
Профиль формата : Layer 3
Режим : Joint stereo
Расширение режима : MS Stereo
Идентификатор кодека : 55
Идентификатор кодека/Подсказка : MP3
Продолжительность : 1 ч. 42 м.
Вид битрейта : Постоянный
Битрейт : 112 Кбит/сек
Каналы : 2 канала
Частота : 48,0 КГц
Метод сжатия : С потерями
Размер потока : 81,8 Мбайт (12%)
Выравнивание : Соединение по промежуткам
Продолжительность промежутка : 40 мс. (1,00 видеокадр)
Время предзагрузки промежутка : 504 ms
Библиотека кодирования : LAME3.98r
Настройки программы : -m j -V 4 -q 3 -lowpass 15.6 -b 112

Общее
Полное имя : D:RASPOUTINE_2011Raspoutine_2011.srt
Формат : SubRip
Размер файла : 58,2 Кбайт

Текст
Формат : SubRip
Метод сжатия : Без потерь

Общее
Полное имя : D:RASPOUTINE_2011Raspoutine_2011_perevod_Alekseya_Koroleva_RUS.srt
Формат : SubRip
Размер файла : 58,2 Кбайт

Текст
Формат : SubRip
Метод сжатия : Без потерь


У вас нет необходимых прав для просмотра вложений в этом сообщении.


Вернуться к началу
 Профиль  
Ответить с цитатой  
  • Торрент
Автор: oartemka178 Хэш: ---
Добавлен: 2013-01-11 14:41 Приватный: Нет (DHT включён)
Статус:
---
Размер: 669.88 МБ (702 421 394 байт)
Изменил:
---
Скачали: 2 (Раздающих: 0%)
Причина:
---
Здоровье: 0%
Сидеров: 0 Личеров: 0
Скорость раздачи: 0 байт/сек Скорость скачивания: 0 байт/сек
Последний сидер: Нет Последний личер: Нет
Для скачивания торрента необходимо зарегистрироваться или войти на трекер.
Показать сообщения за:  Поле сортировки  
Начать новую тему Ответить на тему  [ 1 сообщение ] 

Часовой пояс: UTC + 3 часа


Кто сейчас на конференции

Сейчас этот форум просматривают: нет зарегистрированных пользователей и гости: 1


Вы не можете начинать темы
Вы не можете отвечать на сообщения
Вы не можете редактировать свои сообщения
Вы не можете удалять свои сообщения
Вы не можете добавлять вложения

Найти:
Перейти:  
cron
Переместиться наверх