Часовой пояс: UTC + 3 часа




Начать новую тему Ответить на тему  [ 1 сообщение ] 
Автор Сообщение
СообщениеДобавлено: 2014-03-21 21:36 
Не в сети
Аватара пользователя
Раздал: 7.39 ГБ
Скачал: 410.09 МБ
Ратио: 18.440


Зарегистрирован: 2013-03-13 21:22
Сообщения: 8121
Да здравствует Италия! / Viva l'Italia!

#777
Страна: Италия, Франция
Жанр: исторический, военный
Год выпуска: 1961
Продолжительность: 01:38:43

Перевод: Субтитры
Cубтитры: русские - enoeno
Оригинальная аудиодорожка: итальянский

Режиссер: Роберто Росселлини / Roberto Rossellini

В ролях: Ренцо Риччи, Паоло Стоппа, Франко Интерленги, Джованна Ралли, Раймондо Кросе, Тина Луиза, Леоне Ботта, Джованни Петруччи, Аттильо Доттесьо, Джино Буззанка, Ремо Де Анджелис, Карло Газабини, Эвар Маран, Энтун Нелис, Вандо Тресс

Описание: Фильм посвящен вооруженной экспедиции 1860 года на остров Сардиния и в Неаполитанское королевство знаменитой «тысячи» добровольцев - "краснорубашечников" Дж. Гарибальди с целью объединения Италии.

Доп. информация: Рип и субтитры найдены в сети. Перевод и редактирование - enoeno.

Сэмпл: http://multi-up.com/958976

Качество видео: DVDRip
Формат видео: AVI

Видео: XVID, 672x384, 1,37 Gb, 25,000 fps, 1989 Kbps
Аудио: AC3, 48.0 KHz, 192 Kbps, 2 channels
Формат субтитров: softsub (SRT)


22
00:02:50,947 --> 00:02:53,780
Против абсурдных границ
что разделяли Италию,

23
00:02:53,947 --> 00:02:57,467
и делали иностранцами
детей одного и того же языка,

24
00:02:57,502 --> 00:02:59,503
после 60 лет героической борьбы

25
00:02:59,547 --> 00:03:02,380
в этом славном году был брошен клич:

26
00:03:03,187 --> 00:03:05,542
ДА ЗДРАВСТВУЕТ ИТАЛИЯ!

27
00:03:09,307 --> 00:03:12,856
В Сицилии, стремившейся к свободе,

28
00:03:13,427 --> 00:03:17,420
в Палермо в ночь с 3 на 4
апреля 1860 года

29
00:03:17,747 --> 00:03:19,305
группа заговорщиков подняла восстание.

30
00:03:19,627 --> 00:03:20,742
Потом закроете дверцу.

31
00:03:28,227 --> 00:03:29,546
Флаг, быстро.

32
00:03:38,067 --> 00:03:41,387
- Идите на колокольню и быстро.
- Сюда.

33
00:03:41,422 --> 00:03:43,537
- Мы идем в патио.
- Давай, быстро.

34
00:04:15,587 --> 00:04:17,782
Внимание, готовьсь.

35
00:04:25,867 --> 00:04:27,425
- Они там.
- Цельсь!

36
00:04:28,467 --> 00:04:29,980
Огонь!

37
00:04:33,827 --> 00:04:35,465
Вперед, вперед.

38
00:04:43,187 --> 00:04:44,097
Огонь!

39
00:05:24,867 --> 00:05:26,505
Мой сын!

40
00:05:27,507 --> 00:05:28,735
Внимание!

41
00:05:29,227 --> 00:05:30,455
Кругом!

42
00:05:31,347 --> 00:05:33,019
Первый ряд на колено.

43
00:05:34,587 --> 00:05:35,736
Цельсь.

44
00:05:37,947 --> 00:05:38,936
Огонь!

45
00:05:43,507 --> 00:05:46,738
Я не умер. Я имею право на пощаду.

46
00:05:47,747 --> 00:05:51,660
- Я не умер. Я заслуживаю пощады.
- Добейте его.



Общее
Полное имя : D:Viva_l'Italia!_1961_DVDRip_XviD.avi
Формат : AVI
Формат/Информация : Audio Video Interleave
Размер файла : 1,37 Гбайт
Продолжительность : 1 ч. 38 м.
Общий поток : 1989 Кбит/сек
Программа кодирования : VirtualDubMod 1.5.10.2 (build 2540/release)
Библиотека кодирования : VirtualDubMod build 2540/release

Видео
Идентификатор : 0
Формат : MPEG-4 Visual
Профиль формата : Simple@L3
Параметр BVOP формата : 2
Параметр QPel формата : Нет
Параметр GMC формата : Без точки перехода
Параметр матрицы формата : Default (H.263)
Идентификатор кодека : XVID
Идентификатор кодека/Подсказка : XviD
Продолжительность : 1 ч. 38 м.
Битрейт : 1590 Кбит/сек
Ширина : 672 пикселя
Высота : 384 пикселя
Соотношение сторон : 16:9
Частота кадров : 25,000 кадров/сек
Цветовое пространство : YUV
Субдискретизация насыщенности : 4:2:0
Битовая глубина : 8 бит
Тип развёртки : Прогрессивная
Метод сжатия : С потерями
Бит/(Пиксели*Кадры) : 0.246
Размер потока : 1,10 Гбайт (80%)
Библиотека кодирования : XviD 1.0.1 (UTC 2004-06-05)

Аудио #1
Идентификатор : 1
Формат : AC-3
Формат/Информация : Audio Coding 3
Расширение режима : CM (complete main)
Параметр Endianness формата : Big
Идентификатор кодека : 2000
Продолжительность : 1 ч. 38 м.
Вид битрейта : Постоянный
Битрейт : 192 Кбит/сек
Каналы : 2 канала
Расположение каналов : Front: L R
Частота : 48,0 КГц
Битовая глубина : 16 бит
Метод сжатия : С потерями
Размер потока : 136 Мбайт (10%)
Выравнивание : Разделение по промежуткам
Продолжительность промежутка : 40 мс. (1,00 видеокадр)
Время предзагрузки промежутка : 500 мс.

Аудио #2
Идентификатор : 2
Формат : AC-3
Формат/Информация : Audio Coding 3
Расширение режима : CM (complete main)
Параметр Endianness формата : Big
Идентификатор кодека : 2000
Продолжительность : 1 ч. 38 м.
Вид битрейта : Постоянный
Битрейт : 192 Кбит/сек
Каналы : 2 канала
Расположение каналов : Front: L R
Частота : 48,0 КГц
Битовая глубина : 16 бит
Метод сжатия : С потерями
Размер потока : 136 Мбайт (10%)
Выравнивание : Разделение по промежуткам
Продолжительность промежутка : 40 мс. (1,00 видеокадр)
Время предзагрузки промежутка : 500 мс.










У вас нет необходимых прав для просмотра вложений в этом сообщении.


Вернуться к началу
 Профиль  
Ответить с цитатой  
  • Торрент
Автор: NewsRbk Хэш: ---
Добавлен: 2014-03-21 21:36 Приватный: Нет (DHT включён)
Статус:
---
Размер: 1.37 ГБ (1 472 463 696 байт)
Изменил:
---
Скачали: 0 (Раздающих: 0%)
Причина:
---
Здоровье: 0%
Сидеров: 0 Личеров: 0
Скорость раздачи: 0 байт/сек Скорость скачивания: 0 байт/сек
Последний сидер: Нет Последний личер: Нет
Для скачивания торрента необходимо зарегистрироваться или войти на трекер.
Показать сообщения за:  Поле сортировки  
Начать новую тему Ответить на тему  [ 1 сообщение ] 

Часовой пояс: UTC + 3 часа


Кто сейчас на конференции

Сейчас этот форум просматривают: нет зарегистрированных пользователей и гости: 1


Вы не можете начинать темы
Вы не можете отвечать на сообщения
Вы не можете редактировать свои сообщения
Вы не можете удалять свои сообщения
Вы не можете добавлять вложения

Найти:
Перейти:  
Переместиться наверх