Часовой пояс: UTC + 3 часа




Начать новую тему Ответить на тему  [ 1 сообщение ] 
Автор Сообщение
СообщениеДобавлено: 2014-03-27 12:47 
Не в сети
Аватара пользователя
Раздал: 7.39 ГБ
Скачал: 410.09 МБ
Ратио: 18.440


Зарегистрирован: 2013-03-13 21:22
Сообщения: 8121
Эсфирь и царь / Esther and the King

#777
Страна: Италия, США
Жанр: исторический, драма, библейский
Год выпуска: 1960
Продолжительность: 01:44:52

Перевод: Профессиональный (многоголосый закадровый) 5 канал СПБ
Cубтитры: нет
Оригинальная аудиодорожка: нет

Режиссер: Марио Бава / Mario Bava, Рауль Уолш / Raoul Walsh

В ролях: Джоан Коллинз, Ричард Иган, Рик Батталья, Габриэль Тинти, Денис О’Ди, Серджо Фантони, Розальба Нери, Даниела Рокка, Роберт Бьюкэнэн, Фолько Люлли, Омбретта Остенда, Альдо Пини, Итало Танкреди

Описание: Эта история произошла во времена царствования персидского царя Артаксеркса (4-й век до нашей эры), правителя ста двадцати семи областей от Индии до Эфиопии. Однажды царь устроил великий семидневный пир, посвященный трехлетию своего царствования. Когда развеселилось от вина его сердце, приказал он своим евнухам привести к нему царицу Астинь. Но царица отказалась явиться. И тогда царь отказался от жены своей, снял с нее царское достоинство и выгнал ее. Прошли годы, а когда утих гнев владыки, он решил жениться и вновь послал гонцов на поиски достойнейшей девицы. Многих девушек показали царю, но понравилась ему юная Эсфирь - сирота, воспитанная ее дядей Мардохеем. И взята была Эсфирь к царю во дворец, и стала его любимой женой, но не сказала она мужу своему, что она из рода иудейского. Потому что уготована ей была великая миссия - спасти народ еврейский от истребления...

Доп. информация: Рип мой. Работа со звуком спасибо alex7691

Сэмпл: http://multi-up.com/947051

Качество видео: DVDRip
Формат видео: AVI

Видео: XviD build 50, 704x304 (2.35:1), 25.000 fps, 1660 kbps avg
Аудио: Russian AC3 Dolby Digital, 48 kHz, 2/0 (L,R) ch, 192.00 kbps avg


Complete name : D:\Esther and the king_1960\Esther and the king_1960.DVDRip.MVO.avi
Format : AVI
Format/Info : Audio Video Interleave
File size : 1.36 GiB
Duration : 1h 44mn
Overall bit rate : 1 860 Kbps
Writing application : VirtualDubModRus 1.5.10.2 (build 2542/release)
Writing library : VirtualDubMod build 2542/release

Video
ID : 0
Format : MPEG-4 Visual
Format profile : Advanced Simple@L5
Format settings, BVOP : 1
Format settings, QPel : No
Format settings, GMC : No warppoints
Format settings, Matrix : Default (MPEG)
Codec ID : XVID
Codec ID/Hint : XviD
Duration : 1h 44mn
Bit rate : 1 658 Kbps
Width : 704 pixels
Height : 304 pixels
Display aspect ratio : 2.35:1
Frame rate : 25.000 fps
Color space : YUV
Chroma subsampling : 4:2:0
Bit depth : 8 bits
Scan type : Progressive
Compression mode : Lossy
Bits/(Pixel*Frame) : 0.310
Stream size : 1.21 GiB (89%)
Writing library : XviD 73

Audio
ID : 1
Format : AC-3
Format/Info : Audio Coding 3
Mode extension : CM (complete main)
Format settings, Endianness : Big
Codec ID : 2000
Duration : 1h 44mn
Bit rate mode : Constant
Bit rate : 192 Kbps
Channel count : 2 channels
Channel positions : Front: L R
Sampling rate : 48.0 KHz
Bit depth : 16 bits
Compression mode : Lossy
Stream size : 144 MiB (10%)
Alignment : Split accross interleaves
Interleave, duration : 40 ms (1.00 video frame)
Interleave, preload duration : 500 ms








У вас нет необходимых прав для просмотра вложений в этом сообщении.


Вернуться к началу
 Профиль  
Ответить с цитатой  
  • Торрент
Автор: NewsRbk Хэш: ---
Добавлен: 2014-03-27 12:45 Приватный: Нет (DHT включён)
Статус:
---
Размер: 1.36 ГБ (1 462 781 952 байт)
Изменил:
---
Скачали: 0 (Раздающих: 0%)
Причина:
---
Здоровье: 0%
Сидеров: 0 Личеров: 0
Скорость раздачи: 0 байт/сек Скорость скачивания: 0 байт/сек
Последний сидер: Нет Последний личер: Нет
Для скачивания торрента необходимо зарегистрироваться или войти на трекер.
Показать сообщения за:  Поле сортировки  
Начать новую тему Ответить на тему  [ 1 сообщение ] 

Часовой пояс: UTC + 3 часа


Кто сейчас на конференции

Сейчас этот форум просматривают: нет зарегистрированных пользователей и гости: 1


Вы не можете начинать темы
Вы не можете отвечать на сообщения
Вы не можете редактировать свои сообщения
Вы не можете удалять свои сообщения
Вы не можете добавлять вложения

Найти:
Перейти:  
Переместиться наверх