Часовой пояс: UTC + 3 часа




Начать новую тему Ответить на тему  [ 1 сообщение ] 
Автор Сообщение
СообщениеДобавлено: 2014-04-01 02:15 
Не в сети
Администратор
Администратор
Аватара пользователя
Раздал: 51.58 ТБ
Скачал: 620.08 ГБ
Ратио: 85.182


Зарегистрирован: 2010-11-09 02:24
Сообщения: 44619
Откуда: Земля Санникова
Борис I. Последний язычник / Борис I. Последният езичник

#777
Страна: Болгария
Жанр: Исторический
Год выпуска: 1984
Продолжительность: 02:21:06

Перевод: Любительский (двухголосый закадровый) - den904 & DeadSno
Перевод 2: Субтитры
Cубтитры: русские
Оригинальная аудиодорожка: нет

Режиссер: Б. Шаралиев / B. Sharaliev

В ролях: Стефан Данаилов, Антоний Генов, Коста Цонев, Борис Луканов, Венцислав Кисёв, Анета Петровска, Пламен Дончев, Янина Кашева, Петар Петров, Иван Иванов, Стоян Стоев, Николай Киссуров, Димитр Дмитров, Марио Крастев, Борислав Костов, Александр Александров, Кирил Стаменов, Никола Дачев, Михаил Гетсов, Сильви Ангелов, Петко Беров, Методий Атанасов, Энчо Энчев, Любомир Димов, Петко Тодоров, Владимир Манолов, Стефан Пеев

Описание: Лето 6371 года от сотворения мира, а от Христа 863 год. Хан болгаров был Борис. И с большой силой налетели враги, и воевал Борис 10 лет...
Вторая половина 9-го века Молодой хан болгар Борис I объединил в одну державу два народа - болгар и славян. Он понимает, что укрепить государство ему поможет религия. И он совершает знаменательное событие - крещение. Князь Борис так-же понимает и другое - для государства необходим единый язык и письменность. Он приглашает учеников равноапостольных Кирилла и Мефодия для создания Орхидской и Преславской книжной школы.

Доп. информация: Рип сделан с этого исходника: http://rustrek.ru/viewtopic.php?t=4603762
Это сокращённый вариант фильма. Информация о полной версии:
Борис I Част 1: Покръстването / Boris I Chast I (1984)
Борис I Част 2: Слово за Буквите / Boris I Chast II: Slovo Za Bukvite (1984)
Время: 02:03:45 + 01:57:49 = 04:01:33 (полная версия) нет субтитров.

Сэмпл: http://www.sendspace.com/file/s8vefp

Качество видео: DVDRip
Формат видео: AVI

Видео: 1233 Кбит/сек, 720*320 (2,25:1), в 25,000 кадров/сек, MPEG-4 Visual (XviD) (Advanced Simple@L5) (BVOP2)
Аудио: Русский, 128 Кбит/сек, 48,0 КГц, 2 канала, MPEG Audio (MP3) (Version 1) (Layer 3)
Формат субтитров: prerendered (IDX+SUB)
Доп. информация о субтитрах: русские



Формат : AVIФормат/Информация : Audio Video InterleaveРазмер файла : 1,35 ГбайтПродолжительность : 2 ч. 21 м.Общий поток : 1374 Кбит/сек

ВидеоИдентификатор : 0Формат : MPEG-4 VisualПрофиль формата : Advanced Simple@L5Параметр BVOP формата : 2Параметр QPel формата : НетПараметр GMC формата : Без точки переходаПараметр матрицы формата : Default (H.263)Идентификатор кодека : XVIDИдентификатор кодека/Подсказка : XviDПродолжительность : 2 ч. 21 м.Битрейт : 1233 Кбит/секШирина : 720 пикселейВысота : 320 пикселейСоотношение сторон : 2,25:1Частота кадров : 25,000 кадров/секЦветовое пространство : YUVСубдискретизация насыщенности : 4:2:0Битовая глубина : 8 битТип развёртки : ПрогрессивнаяМетод сжатия : С потерямиБит/(Пиксели*Кадры) : 0.214Размер потока : 1,22 Гбайт (90%)Библиотека кодирования : XviD 1.2.1 (UTC 2008-12-04)

АудиоИдентификатор : 1Формат : MPEG AudioВерсия формата : Version 1Профиль формата : Layer 3Идентификатор кодека : 55Идентификатор кодека/Подсказка : MP3Продолжительность : 2 ч. 21 м.Продолжительность оригинала : 2 ч. 21 м.Вид битрейта : ПостоянныйБитрейт : 128 Кбит/секКаналы : 2 каналаЧастота : 48,0 КГцМетод сжатия : С потерямиРазмер потока : 129 Мбайт (9%)Выравнивание : Разделение по промежуткамПродолжительность промежутка : 24 мс. (0,60 видеокадр)





101:10:35,700 --> 01:10:40,979Ни с места! Головы будут падать!

201:10:42,380 --> 01:10:48,489Ты сказал, Борис, ты сказал: я свершудело без капли крови

301:10:49,700 --> 01:10:54,057Ты сказал, помнишь князь...

401:10:54,300 --> 01:11:00,819что твой меч в крест превратишь,а превратил крест свой в меч!

501:11:02,940 --> 01:11:08,572И не против врагов чужих,а против болгаров своих.

601:11:10,020 --> 01:11:14,650Посмотри на свои ноги, посмотри на свои руки,

701:11:15,780 --> 01:11:23,414и пусть Бог тебе простит... и Тангра...

801:11:24,460 --> 01:11:28,419и наш новый Бог...

901:11:47,020 --> 01:11:53,892Бедный мой Етх, одноглазый друг мой,

1001:11:54,260 --> 01:11:58,492ты ли меня не понялили я тебя не понял?

1101:11:59,020 --> 01:12:03,969Бог видит, все что делаю,делаю ради нее,

1201:12:05,380 --> 01:12:10,329ради милой земли нашей...

1301:12:17,380 --> 01:12:22,977Да будет захоронен, как павший в бою.

1401:12:24,540 --> 01:12:28,055Да будет похоронен, как славный христианин.

1501:12:28,940 --> 01:12:32,569Да будет оплакан всем родом болгарским..

1601:12:33,380 --> 01:12:37,896Да будет умыт всеми рекамиДанастором и Дунаем,

1701:12:39,100 --> 01:12:42,251Струмой, Марицой и Вардаром.

1801:12:43,020 --> 01:12:48,014Да будет захоронен в болгарском лесу,возле болгарского дуба

1901:12:49,020 --> 01:12:53,571и под болгарским камнем.

2001:13:11,460 --> 01:13:15,135Два захоронения, брат,два захоронения будут.










01.12.13 Торрент-файл перезалит. Оригинальная дорога заменена двухголосой озвучкой.


У вас нет необходимых прав для просмотра вложений в этом сообщении.

_________________


Вернуться к началу
 Профиль  
Ответить с цитатой  
  • Торрент
Автор: oartemka178 Хэш: ---
Добавлен: 2014-04-01 02:01 Приватный: Нет (DHT включён)
Статус:
---
Размер: 1.35 ГБ (1 453 207 167 байт)
Изменил:
---
Скачали: 0 (Раздающих: 0%)
Причина:
---
Здоровье: 0%
Сидеров: 0 Личеров: 0
Скорость раздачи: 0 байт/сек Скорость скачивания: 0 байт/сек
Последний сидер: Нет Последний личер: Нет
Для скачивания торрента необходимо зарегистрироваться или войти на трекер.
Показать сообщения за:  Поле сортировки  
Начать новую тему Ответить на тему  [ 1 сообщение ] 

Часовой пояс: UTC + 3 часа


Кто сейчас на конференции

Сейчас этот форум просматривают: нет зарегистрированных пользователей и гости: 1


Вы не можете начинать темы
Вы не можете отвечать на сообщения
Вы не можете редактировать свои сообщения
Вы не можете удалять свои сообщения
Вы не можете добавлять вложения

Найти:
Перейти:  
cron
Переместиться наверх