Часовой пояс: UTC + 3 часа




Начать новую тему Ответить на тему  [ 1 сообщение ] 
Автор Сообщение
СообщениеДобавлено: 2014-04-01 02:30 
Не в сети
Аватара пользователя
Раздал: 7.39 ГБ
Скачал: 410.09 МБ
Ратио: 18.440


Зарегистрирован: 2013-03-13 21:22
Сообщения: 8121
Заговорщица / The Conspirator
«Кто-то должен ответить за убийство президента Линкольна»



#777
Страна: США
Жанр: драма, криминал, история
Год выпуска: 2010
Продолжительность: 02:02:16


Перевод: Авторский (одноголосый закадровый) [size=11]Ю.Сербин

Cубтитры: отсутствуют


Режиссер: Роберт Редфорд / Robert Redford
В ролях: Джеймс МакЭвой, Робин Райт, Кевин Клайн, Эван Рэйчел Вуд, Том Уилкинсон, Джастин Лонг, Дэнни Хьюстон, Джеймс Бэдж Дэйл, Колм Мини, Алексис Бледел


Описание: Мэри Сарретт — одинокая женщина, обвиненная в пособничестве в организации заговора с целью убийства президента Линкольна. И поскольку вся нация повернулась против нее, Мэри вынуждена положиться на неохотно защищающего ее адвоката, чтобы докопаться до правды и доказать свою невиновность.



Download sample


Качество видео: BDRip | исх. Заговорщица / The Conspirator (2010) 1080p BD-Remux
Формат видео: AVI


Видео: 720x304 (2.37:1), 23.976 fps, XviD build 73 ~1248 kbps avg, 0.24 bit/pixel
Аудио: 48 kHz, AC3, 3/2 (L,C,R,l,r) + LFE ch, ~448.00 kbps avg | Авторский (одноголосый закадровый) Ю.Сербин


[/size]



General
Complete name : D:\Фильмы\Рипы\The.Conspirator.2010.BDRip.by Fredd Kruger.avi
Format : AVI
Format/Info : Audio Video Interleave
File size : 1.46 GiB
Duration : 2h 2mn
Overall bit rate : 1 706 Kbps
Writing application : VirtualDubMod 1.5.10.3 | http://www.virtualdub-fr.org || (build 2550/release)
Writing library : VirtualDubMod build 2550/release

Video
ID : 0
Format : MPEG-4 Visual
Format profile : Advanced Simple@L5
Format settings, BVOP : 1
Format settings, QPel : No
Format settings, GMC : No warppoints
Format settings, Matrix : Custom
Codec ID : XVID
Codec ID/Hint : XviD
Duration : 2h 2mn
Bit rate : 1 249 Kbps
Width : 720 pixels
Height : 304 pixels
Display aspect ratio : 2.35:1
Frame rate : 23.976 fps
Color space : YUV
Chroma subsampling : 4:2:0
Bit depth : 8 bits
Scan type : Progressive
Compression mode : Lossy
Bits/(Pixel*Frame) : 0.238
Stream size : 1.07 GiB (73%)
Writing library : XviD 73

Audio
ID : 1
Format : AC-3
Format/Info : Audio Coding 3
Mode extension : CM (complete main)
Format settings, Endianness : Big
Codec ID : 2000
Duration : 2h 2mn
Bit rate mode : Constant
Bit rate : 448 Kbps
Channel count : 6 channels
Channel positions : Front: L C R, Side: L R, LFE
Sampling rate : 48.0 KHz
Bit depth : 16 bits
Compression mode : Lossy
Stream size : 392 MiB (26%)
Alignment : Split accross interleaves
Interleave, duration : 42 ms (1.00 video frame)
Interleave, preload duration : 500 ms








У вас нет необходимых прав для просмотра вложений в этом сообщении.


Вернуться к началу
 Профиль  
Ответить с цитатой  
  • Торрент
Автор: NewsRbk Хэш: ---
Добавлен: 2014-04-01 02:01 Приватный: Нет (DHT включён)
Статус:
---
Размер: 1.46 ГБ (1 564 655 616 байт)
Изменил:
---
Скачали: 0 (Раздающих: 0%)
Причина:
---
Здоровье: 0%
Сидеров: 0 Личеров: 0
Скорость раздачи: 0 байт/сек Скорость скачивания: 0 байт/сек
Последний сидер: Нет Последний личер: Нет
Для скачивания торрента необходимо зарегистрироваться или войти на трекер.
Показать сообщения за:  Поле сортировки  
Начать новую тему Ответить на тему  [ 1 сообщение ] 

Часовой пояс: UTC + 3 часа


Кто сейчас на конференции

Сейчас этот форум просматривают: нет зарегистрированных пользователей и гости: 1


Вы не можете начинать темы
Вы не можете отвечать на сообщения
Вы не можете редактировать свои сообщения
Вы не можете удалять свои сообщения
Вы не можете добавлять вложения

Найти:
Перейти:  
Переместиться наверх