Часовой пояс: UTC + 3 часа




Начать новую тему Ответить на тему  [ 1 сообщение ] 
Автор Сообщение
СообщениеДобавлено: 2011-12-23 20:31 
Не в сети
Аватара пользователя
Раздал: 1.56 ТБ
Скачал: 3.69 ГБ
Ратио: 431.711


Зарегистрирован: 2011-01-16 12:39
Сообщения: 2464
Орел приземлился / The Eagle Has Landed


#777Информация о Фильме
Страна: Великобритания
Год выпуска: 1976
Жанр: военный, драма
Продолжительность: 02:09:53
Перевод: Профессиональный (многоголосый закадровый)
Режиссёр: Джон Стерджес / John Sturges
В ролях: Майкл Кейн, Дональд Сазерленд, Роберт Дювалл, Дженни Агаттер, Дональд Плезенс, Энтони Квейл, Жан Марш, Джефф Конэвей

Краткое содержание: В ноябре 1943 года Уинстон Черчиль собирается посетить базу британских ВВС в районе Норфолка, а затем провести уик-энд в его живописных окрестностях. Это большая удача для нацистского руководства. Незадолго до того Гитлеру приходит в голову безумная мысль похитить британского премьера.По приказу Гиммлера и шефа Абвера адмирала Канариса ретивый полковник Радль находит ирландца Лайма Дэвлина, ненавидящего англичан активиста ирландской освободительной армии, и разжалованного командира парашютного подразделения Курта Штайнера.Отступать Штайдеру некуда, и он принимает предложение. Как только группа коммандос под его руководством высаживается на британский берег под видом польских солдат, становится ясно, что дерзкий план вполне осуществим...

Информация о Файле
Качество: DVDRip
Контейнер: AVI
Видео: 576x320 (1.80:1), 25 fps, XviD MPEG-4 ~717 kbps avg, 0.16 bit/pixel
Аудио: 48 kHz, MPEG Layer 3, 2 ch, ~112.00 kbps avg[br][/br]
Format: AVI
Format/Info: Audio Video Interleave
File size: 780 MiB
Duration: 2h 9mn
Overall bit rate: 839 Kbps
Writing application: FairUse Wizard
Writing library: The best and REALLY easy backup tool
Video
ID: 0
Format: MPEG-4 Visual
Format profile: Advanced Simple@L5
Format settings, BVOP: Yes
Format settings, QPel: No
Format settings, GMC: No warppoints
Format settings, Matrix: Default (H.263)
Muxing mode: Packed bitstream
Codec ID: XVID
Codec ID/Hint: XviD
Duration: 2h 9mn
Bit rate: 717 Kbps
Width: 576 pixels
Height: 320 pixels
Display aspect ratio: 16:9
Frame rate: 25.000 fps
Resolution: 8 bits
Colorimetry: 4:2:0
Scan type: Progressive
Bits/(Pixel*Frame): 0.156
Stream size: 667 MiB (86%)
Writing library: XviD 1.1.0 (UTC 2005-11-22)
Audio
ID: 1
Format: MPEG Audio
Format version: Version 1
Format profile: Layer 3
Mode: Joint stereo
Format_Settings_ModeExtension: MS Stereo
Codec ID: 55
Codec ID/Hint: MP3
Duration: 2h 9mn
Bit rate mode: Constant
Bit rate: 112 Kbps
Channel(s): 2 channels
Sampling rate: 48.0 KHz
Stream size: 104 MiB (13%)
Alignment: Aligned on interleaves
Interleave, duration: 40 ms (1.00 video frame)
Interleave, preload duration: 504 ms
Writing library: LAME3.97b
Encoding settings: -m j -V 4 -q 2 -lowpass 16 -b 112

Раздача мультитрекерная, при нуле сидируемых можете смело вставать на закачку!


У вас нет необходимых прав для просмотра вложений в этом сообщении.


Вернуться к началу
 Профиль  
Ответить с цитатой  
  • Торрент
Автор: qwerty90 Хэш: ---
Добавлен: 2011-12-23 20:31 Приватный: Нет (DHT включён)
Статус:
---
Размер: 779.59 МБ (817 459 200 байт)
Изменил:
---
Скачали: 0 (Раздающих: 0%)
Причина:
---
Здоровье: 0%
Сидеров: 0 Личеров: 0
Скорость раздачи: 0 байт/сек Скорость скачивания: 0 байт/сек
Последний сидер: Нет Последний личер: Нет
Для скачивания торрента необходимо зарегистрироваться или войти на трекер.
Показать сообщения за:  Поле сортировки  
Начать новую тему Ответить на тему  [ 1 сообщение ] 

Часовой пояс: UTC + 3 часа


Кто сейчас на конференции

Сейчас этот форум просматривают: нет зарегистрированных пользователей и гости: 1


Вы не можете начинать темы
Вы не можете отвечать на сообщения
Вы не можете редактировать свои сообщения
Вы не можете удалять свои сообщения
Вы не можете добавлять вложения

Найти:
Перейти:  
Переместиться наверх