Часовой пояс: UTC + 3 часа




Начать новую тему Ответить на тему  [ 1 сообщение ] 
Автор Сообщение
СообщениеДобавлено: 2012-06-07 23:52 
Не в сети
Администратор
Администратор
Аватара пользователя
Раздал: 51.58 ТБ
Скачал: 620.08 ГБ
Ратио: 85.182


Зарегистрирован: 2010-11-09 02:24
Сообщения: 44619
Откуда: Земля Санникова
Спящий голос / La voz dormida
#777
Страна: Испания
Жанр: драма, военный, ...
Год выпуска: 2011
Продолжительность: 2:03:19
Перевод: Субтитры от nokino
Cубтитры: русские
Оригинальная аудиодорожка: испанский
Режиссер: Бенито Самбрано / Benito Zambrano
В ролях: Мария Леон, Инма Куэста, Хавьер Годино, Фэни Де Кастро, Ана Вагенер, Марк Клотет, Сьюзи Санчез, Дэнни Холгин, Хавьер Мора, Берта Охеа ...
Описание:
Апрель 1939 года принес Испании окончание гражданской войны, начало правления Франко и новый режим Католической церкви.Три года страна жила в постоянном страхе, но завершение войны не принесло ни мира, ни спокойствия.
Этот фильм - дань уважения женщинам, которые проливали слезы на бесчисленных могилах, которых преследовали и арестовывали, которых убивали в застенках полиции, тюрьмах и перед расстрельными отрядами.
Этот фильм - история семьи, искалеченной гражданской войной, как и десятки тысяч других.
Этот фильм - очередная история любви и великого материнского счастья, которые случились бы, не случись война...
Качество видео: DVDRip
Формат видео: AVI
Видео: Xvid 720x480 24fps 1499 Кбит/сек
Аудио: MPEG Audio Layer 3 44100Hz stereo 128kbps
Формат субтитров: softsub (SRT)
Доп. информация о субтитрах: внешние

1
00:00:53,780 --> 00:00:55,610
Апрель 1939 года принес Испании
окончание гражданской войны,
2
00:00:55,800 --> 00:00:59,870
начало диктаторского правления Франко и
новый режим в Католической церкви.
3
00:00:59,880 --> 00:01:01,120
Три года мы жили
в постоянном ужасе.
4
00:01:01,320 --> 00:01:03,990
Но конец войны не принес
ни мира, ни успокоения.
5
00:01:04,180 --> 00:01:06,360
Этот фильм - дань уважения всем женщинам,
кто проливал молчаливые слезы на бесчисленных могилах,
6
00:01:06,420 --> 00:01:08,770
кто пожертвовал собой ради осужденных
и преследуемых,
7
00:01:08,960 --> 00:01:10,960
кто погиб в полицейских участках, тюрьмах и
перед расстрельным отрядом.
8
00:01:11,480 --> 00:01:15,830
"Отдайте мне Испанию,
и моя рука не дрогнет. Уверяю, она останется твердой."
9
00:01:15,920 --> 00:01:17,420
Франсиско Франко, каудильо
10
00:01:19,000 --> 00:01:23,560
Мадрид, ноябрь 1940-го.
Второй год Победы.
11
00:01:37,480 --> 00:01:40,520
Святая Мария, Матерь Божья,
помолись за нас грешных,
12
00:01:40,720 --> 00:01:45,680
сейчас и в час нашей смерти.
Аминь.
13
00:02:02,360 --> 00:02:03,200
Идут.
14
00:02:04,440 --> 00:02:05,440
Они идут!
15
00:02:06,800 --> 00:02:08,880
О, Господи!
16
00:02:26,080 --> 00:02:27,440
Минутку внимания, сестры!
17
00:02:27,640 --> 00:02:30,370
Те, кого я назову -
одевайтесь и выходите, побыстрее.
18
00:02:30,640 --> 00:02:32,880
Жулиана Видаль.
19
00:02:34,080 --> 00:02:38,160
Тереза Мартин.
20
00:02:39,560 --> 00:02:43,400
Ангела Тапиа.

Общее
Полное имя : D:\utorent\La_voz_dormida_2011_1400_nokino\La_voz_dormida_2011_1400_nokino.avi
Формат : AVI
Формат/Информация : Audio Video Interleave
Профиль формата : OpenDML
Размер файла : 1,41 Гбайт
Продолжительность : 2 ч. 3 м.
Общий поток : 1641 Кбит/сек
Программа кодирования : Lavf51.12.1
Видео
Идентификатор : 0
Формат : xvid
Идентификатор кодека : xvid
Продолжительность : 2 ч. 3 м.
Битрейт : 1499 Кбит/сек
Ширина : 720 пикселей
Высота : 480 пикселей
Соотношение сторон : 3:2
Частота кадров : 24,000 кадра/сек
Стандарт вещания : NTSC
Бит/(Пиксели*Кадры) : 0.181
Размер потока : 1,29 Гбайт (91%)
Аудио
Идентификатор : 1
Формат : MPEG Audio
Версия формата : Version 1
Профиль формата : Layer 3
Режим : Joint stereo
Расширение режима : MS Stereo
Идентификатор кодека : 55
Идентификатор кодека/Подсказка : MP3
Продолжительность : 2 ч. 3 м.
Вид битрейта : Постоянный
Битрейт : 128 Кбит/сек
Каналы : 2 канала
Частота : 44,1 КГц
Метод сжатия : С потерями
Размер потока : 113 Мбайт (8%)
Выравнивание : Соединение по промежуткам
Продолжительность промежутка : 26 мс. (0,63 видеокадр)
Библиотека кодирования : LAME3.97




У вас нет необходимых прав для просмотра вложений в этом сообщении.

_________________


Вернуться к началу
 Профиль  
Ответить с цитатой  
  • Торрент
Автор: oartemka178 Хэш: ---
Добавлен: 2012-07-03 22:28 Приватный: Нет (DHT включён)
Статус:
---
Размер: 1.41 ГБ (1 517 768 267 байт)
Изменил:
---
Скачали: 0 (Раздающих: 0%)
Причина:
---
Здоровье: 0%
Сидеров: 0 Личеров: 0
Скорость раздачи: 0 байт/сек Скорость скачивания: 0 байт/сек
Последний сидер: Нет Последний личер: Нет
Для скачивания торрента необходимо зарегистрироваться или войти на трекер.
Показать сообщения за:  Поле сортировки  
Начать новую тему Ответить на тему  [ 1 сообщение ] 

Часовой пояс: UTC + 3 часа


Кто сейчас на конференции

Сейчас этот форум просматривают: нет зарегистрированных пользователей и гости: 1


Вы не можете начинать темы
Вы не можете отвечать на сообщения
Вы не можете редактировать свои сообщения
Вы не можете удалять свои сообщения
Вы не можете добавлять вложения

Найти:
Перейти:  
cron
Переместиться наверх