Часовой пояс: UTC + 3 часа




Начать новую тему Ответить на тему  [ 1 сообщение ] 
Автор Сообщение
СообщениеДобавлено: 2012-06-15 00:06 
Не в сети
Администратор
Администратор
Аватара пользователя
Раздал: 51.58 ТБ
Скачал: 620.08 ГБ
Ратио: 85.182


Зарегистрирован: 2010-11-09 02:24
Сообщения: 44619
Откуда: Земля Санникова
Белый тигр



#777
Жанр: военный
Год выпуска: 2012
Продолжительность: 01:48:43


Режиссёр: Карен Шахназаров


В ролях: Виталий Кищенко, Алексей Вертков, Владимир Ильин, Александр Вахов, Виталий Дорджиев, Валерий Гришко, Кристиан Редль, Карл Кранцковски, Леонид Орлов, Дмитрий Быковский-Ромашов


Описание: Вторая Мировая война подходит к концу. Тяжелые затяжные бои изматывают обе стороны. Но чем увереннее наступают советские войска, тем чаще на полях сражений появляется огромным неуязвимый немецкий танк «Белый тигр». Внезапно возникает он в дыму сражений, безжалостно расстреливает своих противников и неожиданно исчезает. Советское командование решает для борьбы с «Белым тигром» создать особый танк — специальную модель Т-34.





Качество видео: HDRip | Сэмпл
Формат видео: AVI
Видео: XviD, 720x384 (1.85:1), 23.976 fps, 1462 Kb/s
Аудио: AC3, 48000 KHz, 448 Kb/s (6 ch)
[/size]
General
Complete name : E:\Новое\Belyi.Tigr.2012.O.HDRip.avi
Format : AVI
Format/Info : Audio Video Interleave
File size : 1.46 GiB
Duration : 1h 48mn
Overall bit rate : 1 920 Kbps
Writing application : VirtualDubMod 1.5.10.3 | http://www.virtualdub-fr.org || (build 2550/release)
Video
ID : 0
Format : MPEG-4 Visual
Format profile : Advanced Simple@L5
Format settings, BVOP : Yes
Format settings, QPel : No
Format settings, GMC : No warppoints
Format settings, Matrix : Custom
Codec ID : XVID
Codec ID/Hint : XviD
Duration : 1h 48mn
Bit rate : 1 462 Kbps
Width : 720 pixels
Height : 384 pixels
Display aspect ratio : 1.85:1
Frame rate : 23.976 fps
Color space : YUV
Chroma subsampling : 4:2:0
Bit depth : 8 bits
Scan type : Progressive
Compression mode : Lossy
Bits/(Pixel*Frame) : 0.209
Stream size : 1.05 GiB (72%)
Writing library : XviD 1.2.1 (UTC 2008-12-04)
Audio
ID : 1
Format : AC-3
Format/Info : Audio Coding 3
Mode extension : CM (complete main)
Format settings, Endianness : Big
Codec ID : 2000
Duration : 1h 48mn
Bit rate mode : Constant
Bit rate : 448 Kbps
Channel(s) : 6 channels
Channel positions : Front: L C R, Side: L R, LFE
Sampling rate : 48.0 KHz
Bit depth : 16 bits
Compression mode : Lossy
Stream size : 348 MiB (23%)
Alignment : Split accross interleaves







У вас нет необходимых прав для просмотра вложений в этом сообщении.

_________________


Вернуться к началу
 Профиль  
Ответить с цитатой  
  • Торрент
Автор: oartemka178 Хэш: ---
Добавлен: 2012-06-20 18:55 Приватный: Нет (DHT включён)
Статус:
---
Размер: 1.46 ГБ (1 565 423 616 байт)
Изменил:
---
Скачали: 1 (Раздающих: 0%)
Причина:
---
Здоровье: 0%
Сидеров: 0 Личеров: 0
Скорость раздачи: 0 байт/сек Скорость скачивания: 0 байт/сек
Последний сидер: Нет Последний личер: Нет
Для скачивания торрента необходимо зарегистрироваться или войти на трекер.
Показать сообщения за:  Поле сортировки  
Начать новую тему Ответить на тему  [ 1 сообщение ] 

Часовой пояс: UTC + 3 часа


Кто сейчас на конференции

Сейчас этот форум просматривают: нет зарегистрированных пользователей и гости: 1


Вы не можете начинать темы
Вы не можете отвечать на сообщения
Вы не можете редактировать свои сообщения
Вы не можете удалять свои сообщения
Вы не можете добавлять вложения

Найти:
Перейти:  
cron
Переместиться наверх