Часовой пояс: UTC + 3 часа




Начать новую тему Ответить на тему  [ 1 сообщение ] 
Автор Сообщение
СообщениеДобавлено: 2012-11-03 19:09 
Не в сети
Администратор
Администратор
Аватара пользователя
Раздал: 51.58 ТБ
Скачал: 620.08 ГБ
Ратио: 85.182


Зарегистрирован: 2010-11-09 02:24
Сообщения: 44619
Откуда: Земля Санникова
Доставить любой ценой
#777
Страна: Украина
Жанр: военный
Год выпуска: 2011
Продолжительность: 01:50:39
Перевод: Не требуется
Cубтитры: русские форсированные на немецкую речь
Режиссер: Александр Березань
В ролях:
Евгения Хиривская
Дмитрий Орлов
Александр Кобзарь
Виктория Малекторович
Сергей Калантай
Дирк Мартенс
Евгений Ермаков
Юрий Шульган
Михаил Жонин
Владимир Левицкий
Описание:
В октябре 1941 советские люди еще верили, что война с немцами не продлится дольше нескольких месяцев. Тем не менее по приказу руководства в тыл перевозят не только заводы, но и исторические ценности. В небольшом городке эвакуируют музей, уютно разместившийся в старинном монастыре. Молодая девушка Ася, ее отец-профессор да его заместитель Феденька — вот и вся охрана, на которую возложена миссия спасти для народа культурное достояние. Среди прочих экспонатов есть один особенный — он должен стать основой для выставки под патронатом самого товарища Сталина, но и у немцев на эту вещицу есть планы.
Путь неблизкий, а дорога полна опасностей. Случается так, что вместо родных людей сопровождать Асеньку станет совсем чужой человек, судьба которого полна неприятных загадок, а повадки и привычки заставляют скорее опасаться его, чем доверять… но одной ей не выжить.
Доп. информация:

Качество видео: BDRip, исходник - Blu-ray disc 1080i
Формат видео: AVI
Видео: 704x400 (1.76:1), 25 fps, XviD build 65 ~1679 kbps avg, 0.24 bit/pixel
Аудио 1: 48 kHz, AC3 Dolby Digital, 2/0 (L,R) ch, ~192 kbps
Аудио 2: 48 kHz, AC3 Dolby Digital, 2/0 (L,R) ch, ~192 kbps - немецкая - отдельно
Формат субтитров: softsub (SRT)
Семпл
Общее
Полное имя : D:\Torrent\Доставить любой ценой\Доставить любой ценой_1.46\Доставить любой ценой_1.46\Доставить любой ценой_1.46.avi
Формат : AVI
Формат/Информация : Audio Video Interleave
Размер файла : 1,45 Гбайт
Продолжительность : 1 ч. 50 м.
Общий поток : 1881 Кбит/сек
Программа кодирования : VirtualDubModRus 1.5.10.2 (build 2540/release)
Библиотека кодирования : VirtualDubMod build 2540/release
Видео
Идентификатор : 0
Формат : MPEG-4 Visual
Профиль формата : Advanced Simple@L5
Параметр BVOP формата : 1
Параметр QPel формата : Нет
Параметр GMC формата : Без точки перехода
Параметр матрицы формата : Выборочная
Идентификатор кодека : XVID
Идентификатор кодека/Подсказка : XviD
Продолжительность : 1 ч. 50 м.
Битрейт : 1680 Кбит/сек
Ширина : 704 пикселя
Высота : 400 пикселей
Соотношение сторон : 16:9
Частота кадров : 25,000 кадров/сек
Цветовое пространство : YUV
Субдискретизация насыщенности : 4:2:0
Битовая глубина : 8 бит
Тип развёртки : Прогрессивная
Метод сжатия : С потерями
Бит/(Пиксели*Кадры) : 0.239
Размер потока : 1,30 Гбайт (89%)
Библиотека кодирования : XviD 65
Аудио
Идентификатор : 1
Формат : AC-3
Формат/Информация : Audio Coding 3
Расширение режима : CM (complete main)
Параметр Endianness формата : Big
Идентификатор кодека : 2000
Продолжительность : 1 ч. 50 м.
Вид битрейта : Постоянный
Битрейт : 192 Кбит/сек
Каналы : 2 канала
Расположение каналов : Front: L R
Частота : 48,0 КГц
Битовая глубина : 16 бит
Метод сжатия : С потерями
Размер потока : 152 Мбайт (10%)
Выравнивание : Разделение по промежуткам
Продолжительность промежутка : 40 мс. (1,00 видеокадр)
Время предзагрузки промежутка : 500 мс.
Общее
Полное имя : D:\Torrent\Доставить любой ценой\Доставить любой ценой_1.46\Доставить любой ценой_1.46\Доставить любой ценой_1.46_ger.ac3
Формат : AC-3
Формат/Информация : Audio Coding 3
Размер файла : 152 Мбайт
Продолжительность : 1 ч. 50 м.
Режим общего битрейта : Постоянный
Общий поток : 192 Кбит/сек
Аудио
Формат : AC-3
Формат/Информация : Audio Coding 3
Расширение режима : CM (complete main)
Параметр Endianness формата : Big
Продолжительность : 1 ч. 50 м.
Вид битрейта : Постоянный
Битрейт : 192 Кбит/сек
Каналы : 2 канала
Расположение каналов : Front: L R
Частота : 48,0 КГц
Битовая глубина : 16 бит
Метод сжатия : С потерями
Размер потока : 152 Мбайт (100%)
Общее
Полное имя : D:\Torrent\Доставить любой ценой\Доставить любой ценой_1.46\Доставить любой ценой_1.46\Доставить любой ценой_1.46_rus_for.srt
Размер файла : 10,0 Кбайт



1
00:10:16,960 --> 00:10:18,799
В июле 1940 года идеологом
2
00:10:19,000 --> 00:10:21,840
нацистской партии Альфредом Розенбергом
3
00:10:21,980 --> 00:10:24,260
был создан оперативный штаб
4
00:10:24,400 --> 00:10:26,719
по изъятию культурных ценностей
5
00:10:26,820 --> 00:10:28,980
на оккупированных территориях.
6
00:10:29,520 --> 00:10:32,200
Специальные зондеркоманды шли в след
7
00:10:32,400 --> 00:10:36,280
за боевими частями и осуществляли
планомерный грабеж
8
00:10:36,660 --> 00:10:40,720
произведений искусства
по всей Восточной Европе.
9
00:14:01,521 --> 00:14:02,721
Я знаю его.
10
00:14:05,322 --> 00:14:08,222
Он здесь завхоз
и должен знать, где Библия.
11
00:14:14,204 --> 00:14:16,022
Вот тогда пусть он и скажет,
где Библия.
12
00:14:54,788 --> 00:14:55,388
Отвечайте.
13
00:15:04,714 --> 00:15:05,414
Где Библия?
14
00:15:46,138 --> 00:15:46,838
Быстрее.
15
00:15:47,538 --> 00:15:48,238
Шевелитесь.
16
00:15:50,438 --> 00:15:51,138
Ну и как?
17
00:15:53,338 --> 00:15:54,838
Ах да.
Это Марковски.
18
00:15:54,938 --> 00:15:57,638
Чудаковатый был старик,
но настоящий профессионал.
19
00:15:57,938 --> 00:15:59,238
А таких я уважаю.
20
00:16:00,238 --> 00:16:04,238
Кстати, еще до революции
мне попадались его
научные статьи.


У вас нет необходимых прав для просмотра вложений в этом сообщении.

_________________


Вернуться к началу
 Профиль  
Ответить с цитатой  
  • Торрент
Автор: oartemka178 Хэш: ---
Добавлен: 2012-11-05 20:54 Приватный: Нет (DHT включён)
Статус:
---
Размер: 1.6 ГБ (1 720 776 705 байт)
Изменил:
---
Скачали: 0 (Раздающих: 0%)
Причина:
---
Здоровье: 0%
Сидеров: 0 Личеров: 0
Скорость раздачи: 0 байт/сек Скорость скачивания: 0 байт/сек
Последний сидер: Нет Последний личер: Нет
Для скачивания торрента необходимо зарегистрироваться или войти на трекер.
Показать сообщения за:  Поле сортировки  
Начать новую тему Ответить на тему  [ 1 сообщение ] 

Часовой пояс: UTC + 3 часа


Кто сейчас на конференции

Сейчас этот форум просматривают: нет зарегистрированных пользователей и гости: 1


Вы не можете начинать темы
Вы не можете отвечать на сообщения
Вы не можете редактировать свои сообщения
Вы не можете удалять свои сообщения
Вы не можете добавлять вложения

Найти:
Перейти:  
Переместиться наверх