Часовой пояс: UTC + 3 часа




Начать новую тему Ответить на тему  [ 1 сообщение ] 
Автор Сообщение
СообщениеДобавлено: 2014-12-15 08:35 
Не в сети
Аватара пользователя
Раздал: 7.39 ГБ
Скачал: 410.09 МБ
Ратио: 18.440


Зарегистрирован: 2013-03-13 21:22
Сообщения: 8121
Несносный дед
Jackass Presents: Bad Grandpa


#777
Страна: США
Жанр: Комедия
Год выпуска: 2013
Продолжительность: 01:42:13

Перевод: Любительский (многоголосый закадровый) Baibako
Cубтитры: нет
Оригинальная аудиодорожка: английский

Режиссер: Джефф Треймейн / Jeff Tremaine

В ролях: Джонни Ноксвилл, Джексон Николл, Грег Харрис, Джорджина Кэйтс, Камбер Хейлик, Джилл Килл, Мэдисон Дэвис, Джордж Фонан, Грэси Мерседес, Мэрилинн Эллейн

Описание: 86-летний старикан по имени Ирвинг Зисман путешествует по Америке с необычным компаньоном — восьмилетним «внуком» Билли. По дороге заводной дедушка знакомит впечатлительного Билли с людьми, местами и ситуациями, которые вряд ли укладываются в рамки привычных представлений о воспитании. Парочка столкнется со стриптизерами, разъяренными участниками помпезного детского конкурса красоты и их не менее злыми мамашами, скорбящими посетителями панихиды, завсегдатаями бара для байкеров и другими ничего не подозревающими гражданами США.

Доп. информация:


Качество видео: BDRip |Несносный дед / Jackass Presents: Bad Grandpa(2013) Blu-Ray Remux 720p|
Формат видео: AVI

Видео: XviD, 720x400 (16:9), 2093 kbps, 24 fps, 0,303 bpp
Аудио: AC3 Dolby Digital; 384 kbps; 6 Ch; 48 kHz (Rus)
Аудио 2: AC3 Dolby Digital; 384 kbps; 6 Ch; 48 kHz (Eng)

MediaInfo
General
Complete name : F:\Фильмы\Несносный дед\Jackass.Presents.Bad.Grandpa.2013.BDRip..avi
Format : AVI
Format/Info : Audio Video Interleave
File size : 2.05 GiB
Duration : 1h 42mn
Overall bit rate : 2 875 Kbps
Writing application : VirtualDubMod 1.5.10.2 (build 2540/release)
Writing library : VirtualDubMod build 2540/release

Video
ID : 0
Format : MPEG-4 Visual
Format profile : Advanced Simple@L5
Format settings, BVOP : 2
Format settings, QPel : No
Format settings, GMC : No warppoints
Format settings, Matrix : Custom
Codec ID : XVID
Codec ID/Hint : XviD
Duration : 1h 42mn
Bit rate : 2 093 Kbps
Width : 720 pixels
Height : 400 pixels
Display aspect ratio : 16:9
Frame rate : 23.976 fps
Color space : YUV
Chroma subsampling : 4:2:0
Bit depth : 8 bits
Scan type : Progressive
Compression mode : Lossy
Bits/(Pixel*Frame) : 0.303
Stream size : 1.49 GiB (73%)
Writing library : XviD 1.2.1 (UTC 2008-12-04)

Audio #1
ID : 1
Format : AC-3
Format/Info : Audio Coding 3
Mode extension : CM (complete main)
Format settings, Endianness : Big
Codec ID : 2000
Duration : 1h 42mn
Bit rate mode : Constant
Bit rate : 384 Kbps
Channel(s) : 6 channels
Channel positions : Front: L C R, Side: L R, LFE
Sampling rate : 48.0 KHz
Bit depth : 16 bits
Compression mode : Lossy
Stream size : 281 MiB (13%)
Alignment : Split accross interleaves
Interleave, duration : 42 ms (1.00 video frame)
Interleave, preload duration : 500 ms

Audio #2
ID : 2
Format : AC-3
Format/Info : Audio Coding 3
Mode extension : CM (complete main)
Format settings, Endianness : Big
Codec ID : 2000
Duration : 1h 42mn
Bit rate mode : Constant
Bit rate : 384 Kbps
Channel(s) : 6 channels
Channel positions : Front: L C R, Side: L R, LFE
Sampling rate : 48.0 KHz
Bit depth : 16 bits
Compression mode : Lossy
Stream size : 281 MiB (13%)
Alignment : Split accross interleaves
Interleave, duration : 42 ms (1.00 video frame)
Interleave, preload duration : 500 ms


Скриншот c названием фильма



Скриншоты



У вас нет необходимых прав для просмотра вложений в этом сообщении.


Вернуться к началу
 Профиль  
Ответить с цитатой  
  • Торрент
Автор: NewsRbk Хэш: ---
Добавлен: 2014-12-15 08:04 Приватный: Нет (DHT включён)
Статус:
---
Размер: 2.05 ГБ (2 203 895 808 байт)
Изменил:
---
Скачали: 0 (Раздающих: 0%)
Причина:
---
Здоровье: 0%
Сидеров: 0 Личеров: 0
Скорость раздачи: 0 байт/сек Скорость скачивания: 0 байт/сек
Последний сидер: Нет Последний личер: Нет
Для скачивания торрента необходимо зарегистрироваться или войти на трекер.
Показать сообщения за:  Поле сортировки  
Начать новую тему Ответить на тему  [ 1 сообщение ] 

Часовой пояс: UTC + 3 часа


Кто сейчас на конференции

Сейчас этот форум просматривают: нет зарегистрированных пользователей и гости: 1


Вы не можете начинать темы
Вы не можете отвечать на сообщения
Вы не можете редактировать свои сообщения
Вы не можете удалять свои сообщения
Вы не можете добавлять вложения

Найти:
Перейти:  
cron
Переместиться наверх