Часовой пояс: UTC + 3 часа




Начать новую тему Ответить на тему  [ 1 сообщение ] 
Автор Сообщение
СообщениеДобавлено: 2014-12-15 08:35 
Не в сети
Аватара пользователя
Раздал: 7.39 ГБ
Скачал: 410.09 МБ
Ратио: 18.440


Зарегистрирован: 2013-03-13 21:22
Сообщения: 8121
Из пекла / Out of the Furnace



#777
Страна: США, Великобритания
Жанр: триллер, драма, криминал
Год выпуска: 2013
Продолжительность: 01:56:07


Перевод: Любительский (двухголосый закадровый) - Дмитрий Чепусов & Анастасия Флигина (Jimmy J.)
Cубтитры: нет


Режиссер: Скотт Купер / Scott Cooper


В ролях: Кристиан Бэйл, Вуди Харрельсон, Кейси Аффлек, Форест Уитакер, Уиллем Дефо, Зои Салдана, Сэм Шепард, Дендри Тейлор, Карл Киарфалио, Нэнси Моссер и др.


Описание: Когда Родни Бэйз таинственно исчезает, а правоохранительные органы при этом действуют недостаточно быстро, его старший брат Рассел берет дело в свои руки, чтобы добиться справедливости.


Сэмпл: http://multi-up.com/955645


Качество видео: HDRip [исходник: BDRip 720p]
Формат видео: AVI

Видео: 688x288 (2.39:1), 23.976 fps, XviD build 73 ~761 kbps avg, 0.16 bit/pixel
Аудио: 48 kHz, MPEG Layer 3, 2 ch, ~128.00 kbps avg


MediaInfo


Код:
Общее
Полное имя                               : D:\Iz_pekla 2013_HDRip.avi
Формат                                   : AVI
Формат/Информация                        : Audio Video Interleave
Размер файла                             : 747 Мбайт
Продолжительность                        : 1 ч. 56 м.
Общий поток                              : 899 Кбит/сек
Программа кодирования                    : VirtualDubMod 1.5.10.3 | www.virtualdub-fr.org || (build 2550/release)
Библиотека кодирования                   : VirtualDubMod build 2550/release

Видео
Идентификатор                            : 0
Формат                                   : MPEG-4 Visual
Профиль формата                          : Advanced Simple@L5
Параметр BVOP формата                    : 1
Параметр QPel формата                    : Нет
Параметр GMC формата                     : Без точки перехода
Параметр матрицы формата                 : Выборочная
Идентификатор кодека                     : XVID
Идентификатор кодека/Подсказка           : XviD
Продолжительность                        : 1 ч. 56 м.
Битрейт                                  : 762 Кбит/сек
Ширина                                   : 688 пикселей
Высота                                   : 288 пикселей
Соотношение сторон                       : 2,40:1
Частота кадров                           : 23,976 кадра/сек
Цветовое пространство                    : YUV
Субдискретизация насыщенности            : 4:2:0
Битовая глубина                          : 8 бит
Тип развёртки                            : Прогрессивная
Метод сжатия                             : С потерями
Бит/(Пиксели*Кадры)                      : 0.160
Размер потока                            : 633 Мбайт (85%)
Библиотека кодирования                   : XviD 73

Аудио
Идентификатор                            : 1
Формат                                   : MPEG Audio
Версия формата                           : Version 1
Профиль формата                          : Layer 3
Идентификатор кодека                     : 55
Идентификатор кодека/Подсказка           : MP3
Продолжительность                        : 1 ч. 56 м.
Вид битрейта                             : Постоянный
Битрейт                                  : 128 Кбит/сек
Каналы                                   : 2 канала
Частота                                  : 48,0 КГц
Метод сжатия                             : С потерями
Размер потока                            : 106 Мбайт (14%)
Выравнивание                             : Соединение по промежуткам
Продолжительность промежутка             : 42  мс. (1,00 видеокадр)
Время предзагрузки промежутка            : 504  мс.
Библиотека кодирования                   : LAME3.99r
Настройки программы                      : -m s -V 4 -q 2 -lowpass 17 -b 128




Скриншоты



У вас нет необходимых прав для просмотра вложений в этом сообщении.


Вернуться к началу
 Профиль  
Ответить с цитатой  
  • Торрент
Автор: NewsRbk Хэш: ---
Добавлен: 2014-12-15 08:04 Приватный: Нет (DHT включён)
Статус:
---
Размер: 746.69 МБ (782 964 736 байт)
Изменил:
---
Скачали: 0 (Раздающих: 0%)
Причина:
---
Здоровье: 0%
Сидеров: 0 Личеров: 0
Скорость раздачи: 0 байт/сек Скорость скачивания: 0 байт/сек
Последний сидер: Нет Последний личер: Нет
Для скачивания торрента необходимо зарегистрироваться или войти на трекер.
Показать сообщения за:  Поле сортировки  
Начать новую тему Ответить на тему  [ 1 сообщение ] 

Часовой пояс: UTC + 3 часа


Кто сейчас на конференции

Сейчас этот форум просматривают: нет зарегистрированных пользователей и гости: 1


Вы не можете начинать темы
Вы не можете отвечать на сообщения
Вы не можете редактировать свои сообщения
Вы не можете удалять свои сообщения
Вы не можете добавлять вложения

Найти:
Перейти:  
cron
Переместиться наверх