Часовой пояс: UTC + 3 часа




Начать новую тему Ответить на тему  [ 1 сообщение ] 
Автор Сообщение
СообщениеДобавлено: 2013-07-31 21:40 
Не в сети
Администратор
Администратор
Аватара пользователя
Раздал: 43.24 ТБ
Скачал: 2.43 ТБ
Ратио: 17.763


Зарегистрирован: 2010-04-17 21:34
Сообщения: 5201
Откуда: Московская обл. г.Люберцы
#777
Страна: СССР
Производство: Студия Горького
Жанр: драма, военный
Год выпуска: 1958
Продолжительность: 01:31:05

Перевод: не требуется
Оригинальная аудиодорожка: русский
Cубтитры: нет

Режиссер: Юрий Егоров

В ролях: Михаил Ульянов, Петр Щербаков, Леонид Быков, Элина Быстрицкая, Людмила Крылова, Микаэла Дроздовская, Сергей Плотников, Виктор Чекмарев, Никифор Колофидин, Александр Сашин-Никольский, Нонна Мордюкова, Мария Виноградова, Павел Винник, Юрий Киреев, Юрий Горбунов, Иван Косых, Леонид Пирогов, Людмила Марченко, Иван Мочалов, Людмила Иванова, Валентин Брылеев, Светлана Харитонова, Елена Максимова, Николай Погодин, Алевтина Румянцева...

Описание:
Действие происходит в 30 — 50 годы. Неразлучные друзья Кайтанов, Уфимцев и Акишин добровольно стали первыми метростроевцами. О них и их подругах Леле, Маше и Тане и других друзьях и товарищах рассказывает этот фильм. Свою дружбу и единство они пронесли через всю жизнь. Трудовой фронт, испанские добровольные бригады, Вторая мировая война и снова послевоенный труд уже в мирное время, радости и печали, победы и утраты, любовь и счастье…

Тип релиза: DVDRip
Контейнер: AVI
Видео: 688x528 (4:3), 25 fps, XviD ~ 1895 kbps avg, 0.209 bit/pixel
Аудио: 48 kHz, Dolby AC3 5.1, 384 kbps

Общее
Полное имя : Dobrovol'cy.1958.DVDRip_[Youtracker]_by_AVP Studio.avi
Формат : AVI
Формат/Информация : Audio Video Interleave
Размер файла : 1,46 Гбайт
Продолжительность : 1 ч. 31 м.
Общий поток : 2289 Кбит/сек
Программа кодирования : VirtualDubMod 1.5.10.3 | http://www.virtualdub-fr.org || (build 2550/release)
Библиотека кодирования : VirtualDubMod build 2550/release

Видео
Идентификатор : 0
Формат : MPEG-4 Visual
Профиль формата : Advanced Simple@L5
Параметр BVOP формата : 1
Параметр QPel формата : Нет
Параметр GMC формата : Без точки перехода
Параметр матрицы формата : Выборочная
Идентификатор кодека : XVID
Идентификатор кодека/Подсказка : XviD
Продолжительность : 1 ч. 31 м.
Битрейт : 1895 Кбит/сек
Ширина : 688 пикселей
Высота : 528 пикселей
Соотношение сторон : 4:3
Частота кадров : 25,000 кадров/сек
Цветовое пространство : YUV
Субдискретизация насыщенности : 4:2:0
Битовая глубина : 8 бит
Тип развёртки : Прогрессивная
Метод сжатия : С потерями
Бит/(Пиксели*Кадры) : 0.209
Размер потока : 1,21 Гбайт (83%)
Библиотека кодирования : XviD 65

Аудио
Идентификатор : 1
Формат : AC-3
Формат/Информация : Audio Coding 3
Расширение режима : CM (complete main)
Идентификатор кодека : 2000
Продолжительность : 1 ч. 31 м.
Вид битрейта : Постоянный
Битрейт : 384 Кбит/сек
Каналы : 6 каналов
Расположение каналов : Front: L C R, Side: L R, LFE
Частота : 48,0 КГц
Битовая глубина : 16 бит
Метод сжатия : С потерями
Размер потока : 250 Мбайт (17%)
Выравнивание : Разделение по промежуткам
Продолжительность промежутка : 40 мс. (1,00 видеокадр)
Время предзагрузки промежутка : 500 мс




[br][/br]
Раздача мультитрекерная, при нуле сидируемых можете смело вставать на закачку!

_________________




Вернуться к началу
 Профиль  
Ответить с цитатой  
Показать сообщения за:  Поле сортировки  
Начать новую тему Ответить на тему  [ 1 сообщение ] 

Часовой пояс: UTC + 3 часа


Кто сейчас на конференции

Сейчас этот форум просматривают: нет зарегистрированных пользователей и гости: 1


Вы не можете начинать темы
Вы не можете отвечать на сообщения
Вы не можете редактировать свои сообщения
Вы не можете удалять свои сообщения
Вы не можете добавлять вложения

Найти:
Перейти:  
cron
Переместиться наверх