Часовой пояс: UTC + 3 часа




Начать новую тему Ответить на тему  [ 1 сообщение ] 
Автор Сообщение
СообщениеДобавлено: 2014-05-25 09:20 
Не в сети
Администратор
Администратор
Аватара пользователя
Раздал: 51.58 ТБ
Скачал: 620.08 ГБ
Ратио: 85.182


Зарегистрирован: 2010-11-09 02:24
Сообщения: 44654
Откуда: Земля Санникова
Люди Икс Дни минувшего будущего / X-Men: Days of Future Past


#777

Страна: США, Великобритания
Жанр: экшн, фэнтези
Год выпуска: 2014
Продолжительность: 01:48:00

Перевод: Профессиональный (дублированный)
Cубтитры: Китайский
Оригинальная аудиодорожка: нет

Режиссер: Брайан Сингер

В ролях: Хью Джекман, Джеймс Макэвой, Майкл Фассбендер, Патрик Стюарт, Иэн Маккеллен, Дженнифер Лоуренс , Николас Холт, Эллен Пейдж, Питер Динклэйдж

Описание: В будущем — лагерь для интернированных, где живут мутанты, лишившиеся свободы. В настоящем — непрекращающееся противостояние с Братством злых мутантов во главе с Магнето. В прошлом — возможность предотвратить господство Стражей, а значит, грядущую для мутантов изоляцию. Благодаря своим способностям путешествовать во времени, Китти Прайд, живущая в будущем, предупреждает нынешних мутантов о том, что их ждет. Но этого недостаточно, ведь из грядущего в настоящее явились и силы зла.

Доп. информация: половина фильма не хватает

Сэмпл: http://multi-up.com/975838

Качество видео: CamRip
Формат видео: AVI

Видео: Xvid 720x304 29.97fps yuv420p, 720x304
Аудио: MP3 44100Hz stereo 128kbps

MediaInfo
Complete name : E:\kino\Lud1.X.Dni.Minuvshego.Budushego.2014.D.CAMRip.1400MB.avi
Format : AVI
Format/Info : Audio Video Interleave
File size : 1.37 GiB
Duration : 1h 48mn
Overall bit rate : 1 816 Kbps
Writing application : VirtualDubMod 1.5.10.2 (build 2540/release)
Writing library : VirtualDubMod build 2540/release

Video
ID : 0
Format : MPEG-4 Visual
Format profile : Advanced Simple@L5
Format settings, BVOP : Yes
Format settings, QPel : No
Format settings, GMC : No warppoints
Format settings, Matrix : Default (MPEG)
Codec ID : XVID
Codec ID/Hint : XviD
Duration : 1h 48mn
Bit rate : 1 677 Kbps
Width : 720 pixels
Height : 304 pixels
Display aspect ratio : 2.35:1
Frame rate : 29.970 fps
Color space : YUV
Chroma subsampling : 4:2:0
Bit depth : 8 bits
Scan type : Progressive
Compression mode : Lossy
Bits/(Pixel*Frame) : 0.256
Stream size : 1.26 GiB (92%)
Writing library : XviD 1.2.1 (UTC 2008-12-04)

Audio
ID : 1
Format : MPEG Audio
Format version : Version 1
Format profile : Layer 3
Codec ID : 55
Codec ID/Hint : MP3
Duration : 1h 48mn
Bit rate mode : Constant
Bit rate : 128 Kbps
Channel(s) : 2 channels
Sampling rate : 44.1 KHz
Compression mode : Lossy
Stream size : 98.9 MiB (7%)
Alignment : Split accross interleaves
Interleave, duration : 33 ms (1.00 video frame)
Interleave, preload duration : 500 ms


Скриншоты





У вас нет необходимых прав для просмотра вложений в этом сообщении.


Вернуться к началу
 Профиль  
Ответить с цитатой  
  • Торрент
Автор: oartemka178 Хэш: ---
Добавлен: 2014-05-25 09:20 Приватный: Нет (DHT включён)
Статус:
---
Размер: 1.37 ГБ (1 471 338 496 байт)
Изменил:
---
Скачали: 3 (Раздающих: 0%)
Причина:
---
Здоровье: 0%
Сидеров: 0 Личеров: 0
Скорость раздачи: 0 байт/сек Скорость скачивания: 0 байт/сек
Последний сидер: Нет Последний личер: Нет
Для скачивания торрента необходимо зарегистрироваться или войти на трекер.
Показать сообщения за:  Поле сортировки  
Начать новую тему Ответить на тему  [ 1 сообщение ] 

Часовой пояс: UTC + 3 часа


Кто сейчас на конференции

Сейчас этот форум просматривают: нет зарегистрированных пользователей и гости: 1


Вы не можете начинать темы
Вы не можете отвечать на сообщения
Вы не можете редактировать свои сообщения
Вы не можете удалять свои сообщения
Вы не можете добавлять вложения

Найти:
Перейти:  
cron
Переместиться наверх