Часовой пояс: UTC + 3 часа




Начать новую тему Ответить на тему  [ 1 сообщение ] 
Автор Сообщение
СообщениеДобавлено: 2014-06-07 18:21 
Не в сети
Администратор
Администратор
Аватара пользователя
Раздал: 51.58 ТБ
Скачал: 620.08 ГБ
Ратио: 85.182


Зарегистрирован: 2010-11-09 02:24
Сообщения: 44654
Откуда: Земля Санникова
Грань будущего / Edge of Tomorrow (2014) CamRip

«Живи. Умри. И снова»


#777
Год выпуска: 2014
Производство: США, Австралия / Village Roadshow Pictures, Translux, Viz Media, 3 Arts Entertainment
Жанр: Фантастика, Боевик
Перевод: Дублированный
Субтитры: Отсутствуют

Режиссер: Даг Лайман

Продюсер: Джейсон Хоффс, Грегори Джейкобс, Том Лассалли
Актеры: Том Круз, Эмили Блант, Брендан Глисон, Билл Пэкстон, Джонас Армстронг, Тони Вэй, Кик Гарри, Франц Драмех, Драгомир Мрсич, Шарлотта Райли

Описание фильма:
История разворачивается в недалеком будущем, когда похожая на рой раса инопланетян, названных мимиками, совершает безжалостное нападение на Землю, стерев в пыль крупные города и уничтожив миллионы жизней. Армии Земли объединят силы, чтобы вступить в последний бой с полчищами инопланетян, зная, что второго шанса у них не будет.

Подполковник Билл Кейдж — ни разу не был на поле битвы, пока его не бросили в самую гущу боя неподготовленного и плохо снаряженного, фактически обрекая на смерть. Через считанные минуты Кейджа убивают, но он захватывает с собой и жизнь пришельца. И случается невозможное — он просыпается живым в начале того же адского дня, и вынужден сражаться и умирать… снова и снова. Прямой физический контакт с пришельцем замкнул временную петлю, и теперь Кейдж вновь и вновь идет в тот же бой.

Но с каждым возвращением Кейдж становится более жестоким и умным в битве с мимиками, сражаясь бок о бок с бойцом спецназа Ритой Вратаски, уничтожившей больше мимиков, чем кто бы то ни было еще на Земле. Рита и Кейдж раз за разом дают бой пришельцам, и каждое повторяющееся сражение приближает их к разгадке того, как убить инопланетных захватчиков и спасти планету.



Сэмпл: Скачать

Дата мировой премьеры: 28 мая 2014
Дата российской премьеры: 5 июня 2014, «Каро-Премьер» 3D
Дата выхода DVD релиза: 9 октября 2014, «CP Дистрибуция»

Продолжительность: 01:45:35
Качество видео: CamRip

Видеокодек: Xvid
Битрейт видео: ~1717 Kbps
Размер кадра: 720x304
Аудиокодек: MP3 2.0
Битрейт аудио: 128 Kbps

Код:
Общее
Полное имя                               : Gran.Budushego.2014.D.CAMRip.1400MB.nnm-club.avi
Формат                                   : AVI
Формат/Информация                        : Audio Video Interleave
Размер файла                             : 1,37 Гбайт
Продолжительность                        : 1 ч. 45 м.
Общий поток                              : 1855 Кбит/сек
Программа кодирования                    : VirtualDubMod 1.5.10.2 (build 2540/release)
Библиотека кодирования                   : VirtualDubMod build 2540/release

Видео
Идентификатор                            : 0
Формат                                   : MPEG-4 Visual
Профиль формата                          : Advanced Simple@L5
Параметр BVOP формата                    : 2
Параметр QPel формата                    : Нет
Параметр GMC формата                     : Без точки перехода
Параметр матрицы формата                 : Default (MPEG)
Идентификатор кодека                     : XVID
Идентификатор кодека/Подсказка           : XviD
Продолжительность                        : 1 ч. 45 м.
Битрейт                                  : 1717 Кбит/сек
Ширина                                   : 720 пикселей
Высота                                   : 304 пикселя
Соотношение сторон                       : 2,35:1
Частота кадров                           : 25,000 кадров/сек
Цветовое пространство                    : YUV
Субдискретизация насыщенности            : 4:2:0
Битовая глубина                          : 8 бит
Тип развёртки                            : Прогрессивная
Метод сжатия                             : С потерями
Бит/(Пиксели*Кадры)                      : 0.314
Размер потока                            : 1,27 Гбайт (93%)
Библиотека кодирования                   : XviD 1.2.1 (UTC 2008-12-04)

Аудио
Идентификатор                            : 1
Формат                                   : MPEG Audio
Версия формата                           : Version 1
Профиль формата                          : Layer 3
Режим                                    : Joint stereo
Расширение режима                        : MS Stereo
Идентификатор кодека                     : 55
Идентификатор кодека/Подсказка           : MP3
Продолжительность                        : 1 ч. 45 м.
Вид битрейта                             : Постоянный
Битрейт                                  : 128 Кбит/сек
Каналы                                   : 2 канала
Частота                                  : 48,0 КГц
Метод сжатия                             : С потерями
Размер потока                            : 96,7 Мбайт (7%)
Выравнивание                             : Соединение по промежуткам
Продолжительность промежутка             : 40  мс. (1,00 видеокадр)
Время предзагрузки промежутка            : 504  мс.

Скриншоты:


Время раздачи: 24/7 (до 10 скачавших)


У вас нет необходимых прав для просмотра вложений в этом сообщении.

_________________


Вернуться к началу
 Профиль  
Ответить с цитатой  
  • Торрент
Автор: oartemka178 Хэш: ---
Добавлен: 2014-06-07 18:21 Приватный: Нет (DHT включён)
Статус:
---
Размер: 1.37 ГБ (1 469 161 472 байт)
Изменил:
---
Скачали: 6 (Раздающих: 0%)
Причина:
---
Здоровье: 0%
Сидеров: 0 Личеров: 0
Скорость раздачи: 0 байт/сек Скорость скачивания: 0 байт/сек
Последний сидер: Нет Последний личер: Нет
Для скачивания торрента необходимо зарегистрироваться или войти на трекер.
Показать сообщения за:  Поле сортировки  
Начать новую тему Ответить на тему  [ 1 сообщение ] 

Часовой пояс: UTC + 3 часа


Кто сейчас на конференции

Сейчас этот форум просматривают: нет зарегистрированных пользователей и гости: 2


Вы не можете начинать темы
Вы не можете отвечать на сообщения
Вы не можете редактировать свои сообщения
Вы не можете удалять свои сообщения
Вы не можете добавлять вложения

Найти:
Перейти:  
cron
Переместиться наверх