Часовой пояс: UTC + 3 часа




Начать новую тему Ответить на тему  [ 1 сообщение ] 
Автор Сообщение
СообщениеДобавлено: 2014-03-29 19:30 
В сети
Администратор
Администратор
Аватара пользователя
Раздал: 51.58 ТБ
Скачал: 620.08 ГБ
Ратио: 85.182


Зарегистрирован: 2010-11-09 02:24
Сообщения: 44625
Откуда: Земля Санникова
Мир фантастики: Пятый элемент: Киноляпы и интересные факты (2006) DVDRip

#777
Русское название: Мир фантастики: Пятый элемент: Киноляпы и интересные факты
Режиссер / Телекомпания: Люк Бессон
Год выпуска: 2006
Жанр: Документальный

Описание:
Давайте рассмотрим киноляп в фильме 1998 года «Армагеддон» с небезызвестным Брюсом Уил-лисом. Как мы все хорошо помним, в конце фильма Брюс Уиллис погибает, взрываясь вместе с гигантским астероидом. А вот уже другой фильм 2001 года — «Пятый элемент», и в нем Брюс Уиллис, как ни странно, живой. Киноляп? Киноляп! Это, как вы догадались, шутка, хотя в каждой шутке есть доля правды. И доля эта в том, что говорить мы сегодня будем как раз о втором упомянутом фильме — «Пятый элемент». Шедевральное творение Люка Бессона знакомо, наверное, каждому из вас. Но даже известные режиссеры не избегают промахов. Многие из этих ошибок вряд ли будут заметны рядовому зрителю, однако заставят внимательных кинолюбителей смотреть на персонажей с недоумением, задаваясь одним вопросом: «Как он это сделал?». Возьмем, к примеру, сцену, где Корбен разбирается с установкой камней в нужные позиции. Первым он берет «водный» камень из рук Корнелиуса, а в следующее мгновение у него в руках оказывается уже «огненный» камень. И Корбен забирает «водный» камень у Корнелиуса во второй раз. Это лишь одна из тех ошибок режиссера, о которых вы узнаете, посмотрев видеоматериал «Пятый элемент. Киноляпы и интересности». Если же говорить об интересностях, то таковых в фильме тоже огромное количество. Даты дней рождений режиссера и некоторых людей, создававших спецэффекты к фильму, интересные имена некоторых второстепенных героев, особенности адаптации фильма в некоторых странах — этому посвящена вторая половина ролика.



Продолжительность: 0:09:04

Перевод: Отсутствует
Язык субтитров: Русский
Вид субтитров: Вшитые

Видеокодек: Xvid
Битрейт видео: ~1 795 Кбит/сек
Размер кадра: 720x448
Качество видео: DVDRip
Аудиокодек: MP3
Битрейт аудио: 128 Кбит/сек
Код:
Общее
Полное имя                               : D:\The.Fifth.Element.Kinolyapy.2006.DVDRip.XviD.avi
Формат                                   : AVI
Формат/Информация                        : Audio Video Interleave
Размер файла                             : 126 Мбайт
Продолжительность                        : 9 м. 4 с.
Общий поток                              : 1936 Кбит/сек
Программа кодирования                    : Lavf52.105.0

Видео
Идентификатор                            : 0
Формат                                   : MPEG-4 Visual
Профиль формата                          : Simple@L3
Параметр BVOP формата                    : Нет
Параметр QPel формата                    : Нет
Параметр GMC формата                     : Без точки перехода
Параметр матрицы формата                 : Default (H.263)
Идентификатор кодека                     : XVID
Идентификатор кодека/Подсказка           : XviD
Продолжительность                        : 9 м. 4 с.
Битрейт                                  : 1795 Кбит/сек
Ширина                                   : 720 пикселей
Высота                                   : 448 пикселей
Соотношение сторон                       : 1,607
Частота кадров                           : 29,970 кадров/сек
Цветовое пространство                    : YUV
Субдискретизация насыщенности            : 4:2:0
Битовая глубина                          : 8 бит
Тип развёртки                            : Прогрессивная
Метод сжатия                             : С потерями
Бит/(Пиксели*Кадры)                      : 0.186
Размер потока                            : 117 Мбайт (93%)
Библиотека кодирования                   : XviD 63

Аудио
Идентификатор                            : 1
Формат                                   : MPEG Audio
Версия формата                           : Version 1
Профиль формата                          : Layer 3
Режим                                    : Joint stereo
Расширение режима                        : MS Stereo
Идентификатор кодека                     : 55
Идентификатор кодека/Подсказка           : MP3
Продолжительность                        : 9 м. 4 с.
Вид битрейта                             : Постоянный
Битрейт                                  : 128 Кбит/сек
Каналы                                   : 2 канала
Частота                                  : 44,1 КГц
Метод сжатия                             : С потерями
Размер потока                            : 8,31 Мбайт (7%)
Выравнивание                             : Соединение по промежуткам
Продолжительность промежутка             : 26  мс. (0,78 видеокадр)
Библиотека кодирования                   : LAME3.98.4

Скриншоты:




Время раздачи: 24/7 - круглосуточно


У вас нет необходимых прав для просмотра вложений в этом сообщении.

_________________


Вернуться к началу
 Профиль  
Ответить с цитатой  
  • Торрент
Автор: oartemka178 Хэш: ---
Добавлен: 2014-03-29 19:30 Приватный: Нет (DHT включён)
Статус:
---
Размер: 125.77 МБ (131 875 282 байт)
Изменил:
---
Скачали: 0 (Раздающих: 0%)
Причина:
---
Здоровье: 0%
Сидеров: 0 Личеров: 0
Скорость раздачи: 0 байт/сек Скорость скачивания: 0 байт/сек
Последний сидер: Нет Последний личер: Нет
Для скачивания торрента необходимо зарегистрироваться или войти на трекер.
Показать сообщения за:  Поле сортировки  
Начать новую тему Ответить на тему  [ 1 сообщение ] 

Часовой пояс: UTC + 3 часа


Кто сейчас на конференции

Сейчас этот форум просматривают: нет зарегистрированных пользователей и гости: 1


Вы не можете начинать темы
Вы не можете отвечать на сообщения
Вы не можете редактировать свои сообщения
Вы не можете удалять свои сообщения
Вы не можете добавлять вложения

Найти:
Перейти:  
Переместиться наверх