Часовой пояс: UTC + 3 часа




Начать новую тему Ответить на тему  [ 1 сообщение ] 
Автор Сообщение
СообщениеДобавлено: 2014-06-04 10:12 
Не в сети
Администратор
Администратор
Аватара пользователя
Раздал: 51.58 ТБ
Скачал: 620.08 ГБ
Ратио: 85.182


Зарегистрирован: 2010-11-09 02:24
Сообщения: 44601
Откуда: Земля Санникова
Глаз ребенка
Tung ngaan
The Child's Eye

#777
Год выпуска: 2010
Страна: Гонконг
Жанр: Ужасы, Триллер
Продолжительность: 01:37:01
Перевод: Профессиональный (дублированный)
Русские субтитры: есть
Режиссеры: Оксид Пан, Дэнни Пан / Oxide Pang Chun, Danny Pang
В ролях: Рэйни Ян, Elanne Kwong, Лам Ка Танг, Джо Ку, Ciwi Lam, Шон Юе, Лоуренс Чоу
Роли дублировали: Вероника Саркисова, Дмитрий Курта, Александра Остроухова
Описание: Группа туристов из Гонконга в составе 6 человек оказывается запертой в аэропорту Бангкока во время антиправительственных выступлений в ноябре 2008-го года. Трое из группы исчезают таинственным и необъяснимым образом, а остальным предстоит столкнуться со сверхъестественными силами.




Проверено на встроенном плейере ТВ Samsung UE-C7000




Качество: BDrip
Контейнер: MKV
Формат 3D: Half OverUnder / Вертикальная анаморфная стереопара
Порядок ракурсов: левый ракурс первый
Видео кодек: x264
Аудио кодек: AC3
Видео: AVC / 23,976 fps / 1920х1080p / 5,3 Mbps
Аудио#1: Русский / AC3 / 48 KHz / 5.1 ch / 448 Kbps
Аудио#2: Китайский / AC3 / 48 KHz / 5.1 ch / 640 Kbps
Субтитры: вшитые softsub srt полные Русские и Английские
MediaInfo
General
UniqueID : 220047907820341933672886759886749490673 (0xA58BAF7C15129C0C9549624C4B64DDF1)
Complete name : F:\Downloads\TheChild'sEye(3D)2010.halfOU(ash61).mkv
Format : Matroska
File size : 4.41 GiB
Duration : 1h 37mn
Overall bit rate : 6 504 Kbps
Movie name : The Child's Eye (3D) 2010 (ash61)
Encoded date : UTC 2012-03-30 08:45:20
Writing application : mkvmerge v3.4.0 ('Rapunzel') сборка от May 15 2010 09:38:20
Writing library : libebml v0.8.0 + libmatroska v0.9.0
Video
ID : 1
Format : AVC
Format/Info : Advanced Video Codec
Format profile : High@L4.1
Format settings, CABAC : Yes
Format settings, ReFrames : 4 frames
Codec ID : V_MPEG4/ISO/AVC
Duration : 1h 37mn
Bit rate : 5 286 Kbps
Width : 1 920 pixels
Height : 1 080 pixels
Display aspect ratio : 16:9
Frame rate : 23.976 fps
Color space : YUV
Chroma subsampling : 4:2:0
Bit depth : 8 bits
Scan type : Progressive
Bits/(Pixel*Frame) : 0.106
Stream size : 3.58 GiB (81%)
Title : BDrip by ash61
Writing library : x264 core 119 r2106 07efeb4
Encoding settings : cabac=1 / ref=4 / deblock=1:-3:-3 / analyse=0x3:0x113 / me=umh / subme=9 / psy=1 / psy_rd=1.00:0.15 / mixed_ref=1 / me_range=16 / chroma_me=1 / trellis=2 / 8x8dct=1 / cqm=0 / deadzone=21,11 / fast_pskip=1 / chroma_qp_offset=-3 / threads=3 / sliced_threads=0 / nr=0 / decimate=1 / interlaced=0 / bluray_compat=0 / constrained_intra=0 / bframes=6 / b_pyramid=2 / b_adapt=2 / b_bias=0 / direct=3 / weightb=1 / open_gop=0 / weightp=2 / keyint=250 / keyint_min=23 / scenecut=40 / intra_refresh=0 / rc_lookahead=60 / rc=crf / mbtree=1 / crf=18.0 / qcomp=0.70 / qpmin=0 / qpmax=69 / qpstep=4 / vbv_maxrate=40000 / vbv_bufsize=40000 / crf_max=0.0 / nal_hrd=none / ip_ratio=1.40 / aq=1:0.70
Audio #1
ID : 2
Format : AC-3
Format/Info : Audio Coding 3
Mode extension : CM (complete main)
Codec ID : A_AC3
Duration : 1h 37mn
Bit rate mode : Constant
Bit rate : 448 Kbps
Channel(s) : 6 channels
Channel positions : Front: L C R, Side: L R, LFE
Sampling rate : 48.0 KHz
Bit depth : 16 bits
Compression mode : Lossy
Stream size : 311 MiB (7%)
Title : Дубляж
Language : Russian
Audio #2
ID : 3
Format : AC-3
Format/Info : Audio Coding 3
Mode extension : CM (complete main)
Codec ID : A_AC3
Duration : 1h 37mn
Bit rate mode : Constant
Bit rate : 640 Kbps
Channel(s) : 6 channels
Channel positions : Front: L C R, Side: L R, LFE
Sampling rate : 48.0 KHz
Bit depth : 16 bits
Compression mode : Lossy
Stream size : 444 MiB (10%)
Language : Chinese
Text #1
ID : 4
Format : UTF-8
Codec ID : S_TEXT/UTF8
Codec ID/Info : UTF-8 Plain Text
Language : Russian
Text #2
ID : 5
Format : UTF-8
Codec ID : S_TEXT/UTF8
Codec ID/Info : UTF-8 Plain Text
Language : English
Menu
00:00:00.000 : :1
00:07:32.118 : :2
00:14:02.425 : :3
00:22:47.866 : :4
00:27:54.673 : :5
00:35:17.282 : :6
00:47:05.072 : :7
00:53:11.814 : :8
00:57:42.584 : :9
01:07:29.504 : :10
01:14:04.357 : :11
01:23:09.860 : :12

Скриншоты



У вас нет необходимых прав для просмотра вложений в этом сообщении.

_________________


Вернуться к началу
 Профиль  
Ответить с цитатой  
  • Торрент
Автор: oartemka178 Хэш: ---
Добавлен: 2018-09-25 12:46 Приватный: Нет (DHT включён)
Статус:
---
Размер: 4.41 ГБ (4 733 884 745 байт)
Изменил:
---
Скачали: 0 (Раздающих: 0%)
Причина:
---
Здоровье: 0%
Сидеров: 0 Личеров: 0
Скорость раздачи: 0 байт/сек Скорость скачивания: 0 байт/сек
Последний сидер: Нет Последний личер: Нет
Для скачивания торрента необходимо зарегистрироваться или войти на трекер.
Показать сообщения за:  Поле сортировки  
Начать новую тему Ответить на тему  [ 1 сообщение ] 

Часовой пояс: UTC + 3 часа


Кто сейчас на конференции

Сейчас этот форум просматривают: нет зарегистрированных пользователей и гости: 1


Вы не можете начинать темы
Вы не можете отвечать на сообщения
Вы не можете редактировать свои сообщения
Вы не можете удалять свои сообщения
Вы не можете добавлять вложения

Найти:
Перейти:  
cron
Переместиться наверх
cron