Часовой пояс: UTC + 3 часа




Начать новую тему Ответить на тему  [ 1 сообщение ] 
Автор Сообщение
СообщениеДобавлено: 2018-11-08 21:29 
Не в сети
Администратор
Администратор
Аватара пользователя
Раздал: 1.21 ТБ
Скачал: 0 байт
Ратио: Seed.


Зарегистрирован: 2014-03-16 00:45
Сообщения: 2168
Зои / Zoe
«В будущем нет одиночества»


#777


Год выпуска: 2018
Страна: США
Продолжительность: 01:43:43
Перевод: Дублированный (iTunes)
Оригинальная аудиодорожка: Есть
Cубтитры: Английские
Жанр: Фантастика, мелодрама

Режиссёр: Дрейк Доримус
Сценарий: Ричард Гринберг, Дрейк Доримус
Продюсер: Дрейк Доримус, Роберт Джордж, Майкл А. Прусс
Оператор: Джон Галесериан
Композитор: Дэн Ромер
Художник: Кэти Байрон, Николас Лепаж, Алана Морсхэд
Монтаж: Дуглас Крайс

В ролях:
Юэн МакГрегор, Леа Сейду, Тео Джеймс, Рашида Джонс, Кристина Агилера, Миранда Отто, Энтони Шим, Donovan Colan, Мэттью Грей Гублер, Ричард Бримблкомб

Описание:
Зои и Коул — ученые будущего, которые разрабатывают идеальных романтических партнеров — синтетиков. Их цель — избавить людей от одиночества и неразделенной любви. Но чем дальше они продвигаются в своих экспериментах, тем сомнительнее выглядят результаты их работы…

6.283 / 10
6.10 / 10

Сборы в России: $278 184
Мировая премьера: 21 апреля 2018
Премьера (РФ): 19 июля 2018, «MEGOGO Distribution»
Релиз на DVD: 20 августа 2018, «Megogo Distribution»

Качество исходника: WEB-DL 1080p (NNMClub)
Качество: WEB-DL
Тип: HD (1080p)
Контейнер: M4V
Видео: H.264, 1912x792, 2.40:1, 4 586 Kbps, 23.976 fps
Аудио 1: Русский/Дублированный (iTunes), AAC / 2.0 / 160 Kbps / 48.0 KHz
Аудио 2: Английский/Оригинальная дорожка , AAC / 2.0 / 160 Kbps / 48.0 KHz
Аудио 3: Русский/Дублированный (iTunes), AC-3 / 5.1 / 384 Kbps / 48.0 KHz
Аудио 4: Английский/Оригинальная дорожка , AC-3 / 5.1 / 384 Kbps / 48.0 KHz
Субтитры: Английские полные


Код:
Код:
Sort Name: Зои
XID: Apple:vendor_id:2018-1002560
contentID: 1421826209
Screenwriters: Ричард Гринберг, Дрейк Доримус
Producers: Дрейк Доримус, Роберт Джордж, Майкл А. Прусс
Director: Дрейк Доримус
Cast: Юэн МакГрегор, Леа Сейду, Тео Джеймс, Рашида Джонс, Кристина Агилера, Миранда Отто, Энтони Шим, Donovan Colan, Мэттью Грей Гублер, Ричард Бримблкомб
Studio: IM Global, Scott Free Productions
Rating: 136
Long Description: Зои и Коул — ученые будущего, которые разрабатывают идеальных романтических партнеров — синтетиков. Их цель — избавить людей от одиночества и неразделенной любви. Но чем дальше они продвигаются в своих экспериментах, тем сомнительнее выглядят результаты их работы…
Description: Зои и Коул — ученые будущего, которые разрабатывают идеальных романтических партнеров — синтетиков. Их цель — избавить людей от одиночества и неразделенной любви. Но чем дальше они продвигаются в своих экспериментах, тем сомнительнее выглядят результаты их работы…
Release Date: 2018-08-20T07:00:00Z
Genre: Триллеры
Artist: Drake Doremus
Name: Зои

Код:
Код:
General
Complete name : /Users/imac/HandBrake/Zoe.WEB-DL.1080p.m4v
Format : MPEG-4
Codec ID : M4V
File size : 4.11 GiB
Duration : 1h 43mn
Overall bit rate mode : Variable
Overall bit rate : 5 676 Kbps
Movie name : Зои
Performer : Drake Doremus
Director : Дрейк Доримус
Actor : Юэн МакГрегор / Леа Сейду / Тео Джеймс / Рашида Джонс / Кристина Агилера / Миранда Отто / Энтони Шим / Donovan Colan / Мэттью Грей Гублер / Ричард Бримблкомб
Screenplay by : Ричард Гринберг / Дрейк Доримус
Producer : Дрейк Доримус / Роберт Джордж / Майкл А. Прусс
Production studio : IM Global, Scott Free Productions
Genre : Триллеры
ContentType : Short Film
Description : Зои и Коул — ученые будущего, которые разрабатывают идеальных романтических партнеров — синтетиков. Их цель — избавить людей от одиночества и неразделенной любви. Но чем дальше они продвигаются в своих экспериментах, тем сомнительнее выглядят результаты их работы…
Recorded date : UTC 2018-08-20 07:00:00
Encoded date : UTC 2018-09-20 22:25:04
Tagged date : UTC 2018-09-20 22:26:13
Cover : Yes
Rating : None
Title/Sort : Зои
LongDescription : Зои и Коул — ученые будущего, которые разрабатывают идеальных романтических партнеров — синтетиков. Их цель — избавить людей от одиночества и неразделенной любви. Но чем дальше они продвигаются в своих экспериментах, тем сомнительнее выглядят результаты их работы…
AppleStoreCatalogID : 1421826209
Vendor : Apple:vendor_id:2018-1002560
ContentRating : ru-movie|18+|400|
Video #1
ID : 1
Format : AVC
Format/Info : Advanced Video Codec
Format profile : High@L4
Format settings, CABAC : Yes
Format settings, ReFrames : 5 frames
Codec ID : avc1
Codec ID/Info : Advanced Video Coding
Duration : 1h 43mn
Bit rate : 4 586 Kbps
Width : 1 912 pixels
Height : 792 pixels
Display aspect ratio : 2.40:1
Frame rate : 23.976 fps
Color space : YUV
Chroma subsampling : 4:2:0
Bit depth : 8 bits
Scan type : Progressive
Bits/(Pixel*Frame) : 0.126
Stream size : 3.32 GiB (81%)
Title : Main Program
Language : English
Encoded date : UTC 2018-09-20 22:25:04
Tagged date : UTC 2018-09-20 22:25:13
Color range : Limited
Color primaries : BT.709
Transfer characteristics : BT.709
Matrix coefficients : BT.709
Video #2
ID : 8
Format : JPEG
Codec ID : jpeg
Duration : 1h 43mn
Bit rate mode : Variable
Bit rate : 459 bps
Width : 640 pixels
Height : 265 pixels
Display aspect ratio : 2.40:1
Frame rate mode : Variable
Frame rate : 0.002 fps
Minimum frame rate : 0.001 fps
Maximum frame rate : 0.008 fps
Color space : YUV
Chroma subsampling : 4:2:0
Bit depth : 8 bits
Compression mode : Lossy
Bits/(Pixel*Frame) : 1.353
Stream size : 308 KiB (0%)
Title : Chapter Images
Language : English
Encoded date : UTC 2018-09-20 22:25:21
Tagged date : UTC 2018-09-20 22:25:21
Audio #1
ID : 2
Format : AAC
Format/Info : Advanced Audio Codec
Format profile : LC
Codec ID : 40
Duration : 1h 43mn
Source duration : 1h 43mn
Bit rate mode : Variable
Bit rate : 157 Kbps
Maximum bit rate : 224 Kbps
Channel(s) : 2 channels
Channel positions : Front: L R
Sampling rate : 48.0 KHz
Compression mode : Lossy
Stream size : 116 MiB (3%)
Source stream size : 116 MiB (3%)
Title : Russian Stereo
Language : Russian
Encoded date : UTC 2018-09-20 22:25:04
Tagged date : UTC 2018-09-20 22:25:15
Audio #2
ID : 3
Format : AAC
Format/Info : Advanced Audio Codec
Format profile : LC
Codec ID : 40
Duration : 1h 43mn
Source duration : 1h 43mn
Bit rate mode : Variable
Bit rate : 157 Kbps
Maximum bit rate : 217 Kbps
Channel(s) : 2 channels
Channel positions : Front: L R
Sampling rate : 48.0 KHz
Compression mode : Lossy
Stream size : 117 MiB (3%)
Source stream size : 117 MiB (3%)
Title : English Stereo
Language : English
Encoded date : UTC 2018-09-20 22:25:04
Tagged date : UTC 2018-09-20 22:25:15
Audio #3
ID : 4
Format : AC-3
Format/Info : Audio Coding 3
Mode extension : CM (complete main)
Format settings, Endianness : Big
Codec ID : ac-3
Duration : 1h 43mn
Bit rate mode : Constant
Bit rate : 384 Kbps
Channel(s) : 6 channels
Channel positions : Front: L C R, Side: L R, LFE
Sampling rate : 48.0 KHz
Bit depth : 16 bits
Compression mode : Lossy
Stream size : 285 MiB (7%)
Title : Russian DD 5.1
Language : Russian
Encoded date : UTC 2018-09-20 22:25:04
Tagged date : UTC 2018-09-20 22:25:13
Audio #4
ID : 5
Format : AC-3
Format/Info : Audio Coding 3
Mode extension : CM (complete main)
Format settings, Endianness : Big
Codec ID : ac-3
Duration : 1h 43mn
Bit rate mode : Constant
Bit rate : 384 Kbps
Channel(s) : 6 channels
Channel positions : Front: L C R, Side: L R, LFE
Sampling rate : 48.0 KHz
Bit depth : 16 bits
Compression mode : Lossy
Stream size : 285 MiB (7%)
Title : English DD 5.1
Language : English
Encoded date : UTC 2018-09-20 22:25:04
Tagged date : UTC 2018-09-20 22:25:13
Text
ID : 6
Format : Timed Text
Muxing mode : sbtl
Codec ID : tx3g
Duration : 1h 43mn
Bit rate mode : Variable
Bit rate : 62 bps
Stream size : 47.0 KiB (0%)
Title : English full
Language : English
Encoded date : UTC 2018-09-20 22:25:04
Tagged date : UTC 2018-09-20 22:25:14
Menu #1
00:00:00.000 : 1
00:02:11.000 : 2
00:13:28.000 : 3
00:25:09.000 : 4
00:35:38.000 : 5
00:48:04.000 : 6
01:01:07.000 : 7
01:11:40.000 : 8
01:21:26.000 : 9
01:28:05.000 : 10
01:38:10.000 : 11
Menu #2
ID : 7
Codec ID : text
Duration : 1h 43mn
Language : English
Encoded date : UTC 2018-09-20 22:25:16
Tagged date : UTC 2018-09-20 22:25:16
00:00:00.000 : 1
00:02:11.000 : 2
00:13:28.000 : 3
00:25:09.000 : 4
00:35:38.000 : 5
00:48:04.000 : 6
01:01:07.000 : 7
01:11:40.000 : 8
01:21:26.000 : 9
01:28:05.000 : 10
01:38:10.000 : 11
Bit rate mode : VBR




Релиз подготовлен для просмотра на Apple TV, iPad, iPhone, iPod Touch.
Для просмотра данного релиза на компьютере с ОС Windows рекомендуется использовать VLC media player


У вас нет необходимых прав для просмотра вложений в этом сообщении.


Вернуться к началу
 Профиль  
Ответить с цитатой  
  • Торрент
Автор: Consultants Хэш: ---
Добавлен: 2018-11-08 21:28 Приватный: Нет (DHT включён)
Статус: Проверен
Размер: 4.11 ГБ (4 415 130 688 байт)
Изменил:
---
Скачали: 0 (Раздающих: 0%)
Причина:
---
Здоровье: 100%
Сидеров: 34 Личеров: 11
Скорость раздачи: 0 байт/сек Скорость скачивания: 0 байт/сек
Последний сидер: 12 часов 8 минут 26 секунд назад Последний личер: 12 часов 8 минут 26 секунд назад
Для скачивания торрента необходимо зарегистрироваться или войти на трекер.
Показать сообщения за:  Поле сортировки  
Начать новую тему Ответить на тему  [ 1 сообщение ] 

Часовой пояс: UTC + 3 часа


Кто сейчас на конференции

Сейчас этот форум просматривают: нет зарегистрированных пользователей и гости: 1


Вы не можете начинать темы
Вы не можете отвечать на сообщения
Вы не можете редактировать свои сообщения
Вы не можете удалять свои сообщения
Вы не можете добавлять вложения

Найти:
Перейти:  
Переместиться наверх
cron