Часовой пояс: UTC + 3 часа




Начать новую тему Ответить на тему  [ 1 сообщение ] 
Автор Сообщение
СообщениеДобавлено: 2014-08-31 15:56 
В сети
Администратор
Администратор
Аватара пользователя
Раздал: 51.58 ТБ
Скачал: 620.08 ГБ
Ратио: 85.182


Зарегистрирован: 2010-11-09 02:24
Сообщения: 44625
Откуда: Земля Санникова
Детская Новая волна-2014


#777
Жанр: Детский концерт
Продолжительность: 01:40:00 + 01:26:49
Год выпуска: 2014

Описание: Крым встречает самых талантливых исполнителей в возрасте от 8 до 12 лет на "Новой волне-2014"! В этом году в Международный детский центр "Артек" для участия в популярном конкурсе прибыли 17 финалистов из 11 стран мира: России, Украины, Армении, Израиля, Румынии, Казахстана, Италии, Молдовы, Беларуси, Латвии и Грузии. Все они были выбраны на полуфинале компетентным профессиональным жюри. Председатель жюри: народный артист России, композитор и продюсер Игорь Крутой.
Участникам предстоит исполнить мировые хиты, песни из мультфильмов и кинофильмов. В течение трех дней на сцене "Детской Новой волны" выступят звезд российской эстрады в дуэтах с лауреатами конкурса прошлых лет. В этом году Россию представляют коллектив "4 кадра" из Москвы (Антонина Володина, Дарья Шмырина, Никита Сарбаш и Диана Рахимова) Екатерина Манешина из Коломны и москвичка Полина Богусевич.

Качество: HDTV 1080i
Контейнер: TS
Видео кодек: H.264
Аудио кодек: MP2
Видео: H264; 1920x1080 (16:9); 25.000 fps; ~7 848 Kbps
Аудио: MPEG Audio 48000Hz stereo 192 Кбит/сек

Отчёт MediaInfo / BDInfo

GeneralID : 1 (0x1)Complete name : O:\ДИСК-2\Детская Новая волна-2014\Детская Новая волна-2014 часть 1.tsFormat : MPEG-TSFile size : 5.91 GiBDuration : 1h 39mnOverall bit rate mode : VariableOverall bit rate : 8 460 Kbps

VideoID : 2292 (0x8F4)Menu ID : 1 (0x1)Format : AVCFormat/Info : Advanced Video CodecFormat profile : High@L4.0Format settings, CABAC : YesFormat settings, ReFrames : 4 framesCodec ID : 27Duration : 1h 39mnBit rate : 7 848 KbpsWidth : 1 920 pixelsHeight : 1 080 pixelsDisplay aspect ratio : 16:9Frame rate : 25.000 fpsColor space : YUVChroma subsampling : 4:2:0Bit depth : 8 bitsScan type : MBAFFBits/(Pixel*Frame) : 0.151Stream size : 5.48 GiB (93%)

AudioID : 2295 (0x8F7)Menu ID : 1 (0x1)Format : MPEG AudioFormat version : Version 1Format profile : Layer 2Mode : Joint stereoMode extension : Intensity Stereo + MS StereoCodec ID : 3Duration : 1h 39mnBit rate mode : ConstantBit rate : 192 KbpsChannel(s) : 2 channelsSampling rate : 48.0 KHzCompression mode : LossyStream size : 137 MiB (2%)Language : English



Скриншоты




У вас нет необходимых прав для просмотра вложений в этом сообщении.


Вернуться к началу
 Профиль  
Ответить с цитатой  
  • Торрент
Автор: oartemka178 Хэш: ---
Добавлен: 2014-08-31 15:56 Приватный: Нет (DHT включён)
Статус:
---
Размер: 11.02 ГБ (11 837 683 764 байт)
Изменил:
---
Скачали: 0 (Раздающих: 0%)
Причина:
---
Здоровье: 0%
Сидеров: 0 Личеров: 0
Скорость раздачи: 0 байт/сек Скорость скачивания: 0 байт/сек
Последний сидер: Нет Последний личер: Нет
Для скачивания торрента необходимо зарегистрироваться или войти на трекер.
Показать сообщения за:  Поле сортировки  
Начать новую тему Ответить на тему  [ 1 сообщение ] 

Часовой пояс: UTC + 3 часа


Кто сейчас на конференции

Сейчас этот форум просматривают: нет зарегистрированных пользователей и гости: 1


Вы не можете начинать темы
Вы не можете отвечать на сообщения
Вы не можете редактировать свои сообщения
Вы не можете удалять свои сообщения
Вы не можете добавлять вложения

Найти:
Перейти:  
Переместиться наверх