Часовой пояс: UTC + 3 часа




Начать новую тему Ответить на тему  [ 1 сообщение ] 
Автор Сообщение
СообщениеДобавлено: 2012-08-16 09:32 
Не в сети
Администратор
Администратор
Аватара пользователя
Раздал: 51.58 ТБ
Скачал: 620.08 ГБ
Ратио: 85.182


Зарегистрирован: 2010-11-09 02:24
Сообщения: 44655
Откуда: Земля Санникова
Универсальный солдат 4 / Universal Soldier: A New Dimension

#777

Русское название: Универсальный солдат 4
Оригинальное название: Universal Soldier: A New Dimension
Год выпуска: 2012
Производство: США / Baumgarten Management and Productions (BMP), Foresight Unlimited, Signature Pictures
Жанр: Фантастика, Боевик
Перевод: Отсутствует
Язык: Английский
Дата мировой премьеры: 25 августа 2012
Дата российской премьеры: 4 октября 2012, «Люксор» 3D
Дата выхода DVD/Blu-Ray релиза: N/A
Режиссер: Джон Хайамс
Актеры: Жан-Клод Ван Дамм, Дольф Лундгрен, Скотт Эдкинс, Кристофер Ван Варенберг, Дэвид Дженсен, Остин Нолти, Рой Джонс мл., Мария Боннер, Рас Блэквелл, Джеймс ДюМонт
Описание фильма: Настоящее время. Программа «Unisol» по-прежнему актуальна и снова введена в эксплуатацию. Давним и непримиримым врагам времён Вьетнамской войны Эндрю Скотту и Люку Деверо суждено встретиться в очередной раз, дабы продолжить своё извечное противостояние и нескончаемую борьбу. Однако, новые опасности и трудности заставляют двух солдат на время объединиться пред лицом общей неприятности, что весьма ненадолго. Ясно одно: кровавый исход и брутальный финал неизбежен…

Продолжительность: 00:02:08
Качество видео: HDTVRip
Видеокодек: MPEG-4 AVC/H.264
Битрейт видео: ~1 324 Kbps
Размер кадра: 1280х550
Аудиокодек: AAC 2.0
Битрейт аудио: 66.2 Kbps (VBR)
Код: General
Complete name                            : E:\ЗАГРУЗКИ\universalsoldier4-trailer.mp4
Format                                   : MPEG-4
Format profile                           : Base Media
Codec ID                                 : isom
File size                                : 21.3 MiB
Duration                                 : 2mn 8s
Overall bit rate mode                    : Variable
Overall bit rate                         : 1 394 Kbps
Writing application                      : Lavf52.38.0

Video
ID                                       : 1
Format                                   : AVC
Format/Info                              : Advanced Video Codec
Format profile                           : [url=mailto:Main@L3.0]Main@L3.0[/url]
Format settings, CABAC                   : Yes
Format settings, ReFrames                : 1 frame
Codec ID                                 : avc1
Codec ID/Info                            : Advanced Video Coding
Duration                                 : 2mn 8s
Bit rate                                 : 1 324 Kbps
Nominal bit rate                         : 1 711 Kbps
Width                                    : 1 280 pixels
Height                                   : 550 pixels
Display aspect ratio                     : 16:9
Frame rate mode                          : Variable
Frame rate                               : 25.000 fps
Original frame rate                      : 30.000 fps
Minimum frame rate                       : 15.000 fps
Maximum frame rate                       : 30.000 fps
Color space                              : YUV
Chroma subsampling                       : 4:2:0
Bit depth                                : 8 bits
Scan type                                : Progressive
Bits/(Pixel*Frame)                       : 0.075
Stream size                              : 20.2 MiB (95%)
Writing library                          : x264 core 75
Encoding settings                        : cabac=1 / ref=1 / deblock=0:0:0 / analyse=0x1:0 / me=hex / subme=1 / psy=1 / psy_rd=0.0:0.0 / mixed_ref=0 / me_range=16 / chroma_me=1 / trellis=1 / 8x8dct=0 / cqm=0 / deadzone=21,11 / chroma_qp_offset=0 / threads=6 / nr=0 / decimate=1 / mbaff=0 / bframes=0 / keyint=250 / keyint_min=25 / scenecut=40 / rc_lookahead=40 / rc=cbr / mbtree=1 / bitrate=1711 / ratetol=0.4 / qcomp=0.60 / qpmin=10 / qpmax=51 / qpstep=4 / vbv_maxrate=1711 / vbv_bufsize=1200 / ip_ratio=1.41 / aq=1:1.00

Audio
ID                                       : 2
Format                                   : AAC
Format/Info                              : Advanced Audio Codec
Format profile                           : LC
Codec ID                                 : 40
Duration                                 : 2mn 7s
Bit rate mode                            : Variable
Bit rate                                 : 66.2 Kbps
Channel(s)                               : 2 channels
Channel positions                        : Front: L R
Sampling rate                            : 22.05 KHz
Compression mode                         : Lossy
Stream size                              : 1 024 KiB (5%)
Скриншоты:

Время раздачи: 24/7
до 3x скачавших..


У вас нет необходимых прав для просмотра вложений в этом сообщении.


Вернуться к началу
 Профиль  
Ответить с цитатой  
  • Торрент
Автор: oartemka178 Хэш: ---
Добавлен: 2012-08-16 09:32 Приватный: Нет (DHT включён)
Статус:
---
Размер: 21.26 МБ (22 296 804 байт)
Изменил:
---
Скачали: 0 (Раздающих: 0%)
Причина:
---
Здоровье: 0%
Сидеров: 0 Личеров: 0
Скорость раздачи: 0 байт/сек Скорость скачивания: 0 байт/сек
Последний сидер: Нет Последний личер: Нет
Для скачивания торрента необходимо зарегистрироваться или войти на трекер.
Показать сообщения за:  Поле сортировки  
Начать новую тему Ответить на тему  [ 1 сообщение ] 

Часовой пояс: UTC + 3 часа


Кто сейчас на конференции

Сейчас этот форум просматривают: нет зарегистрированных пользователей и гости: 1


Вы не можете начинать темы
Вы не можете отвечать на сообщения
Вы не можете редактировать свои сообщения
Вы не можете удалять свои сообщения
Вы не можете добавлять вложения

Найти:
Перейти:  
cron
Переместиться наверх