Часовой пояс: UTC + 3 часа




Начать новую тему Ответить на тему  [ 1 сообщение ] 
Автор Сообщение
СообщениеДобавлено: 2014-03-25 23:52 
Не в сети
Аватара пользователя
Раздал: 7.39 ГБ
Скачал: 460.89 МБ
Ратио: 16.408


Зарегистрирован: 2013-03-13 21:22
Сообщения: 8121
Тариф "Счастливая семья"

#777
Жанр: Мелодрама
Производство: Россия
Год выпуска: 2013
Продолжительность: 01:29:32

Режиссёр: Алина Чеботарёва

В ролях: Мария Андреева, Алексей Анищенко, Кирилл Жандаров, Евгений Капорин, Сергей Романюк

Описание: Нина получает известие о том, что ее дедушка Павел Алексеевич Назаров попал в больницу с обширным инфарктом. Девушка срочно выезжает в Старосельск, чтобы выяснить, что случилось с ее дедом. Когда Нина приезжает в городок, к ней начинают проявлять внимания ее бывший одноклассник, хамоватый предприниматель Славик, и приемник ее деда на должности директора школы, неуверенный в себе Антон. Да еще к ней по пустякам каждый раз придирается оперативник Виктор. Нина просит приехать своего столичного жениха, однокурсника Кирилла, и привезти из Москвы лекарство для Павла Алексеевича. Все мужчины, окружающие Нину проявляют себя по-разному. Нина переживает измену, предательство, подлость и все равно верит, что у нее будет семейное счастье...

Релиз от:

Сэмпл

Качество видео: HDTVRip
Формат видео: AVI
Видео кодек: XviD
Аудио кодек: АС3
Видео: 720x400 (1.80:1), 25 fps, XviD build 50 ~1989 kbps avg, 0.28 bit/pixel
Аудио: 48 kHz, AC3 Dolby Digital, 2/0 (L,R) ch, ~192.00 kbps avg


General
Complete name : V:\ftp4\Videos\Tarif.Schastlivaya.semya.2013..XviD.HDTVRip.Files-x.avi
Format : AVI
Format/Info : Audio Video Interleave
File size : 1.37 GiB
Duration : 1h 29mn
Overall bit rate : 2 191 Kbps
Writing application : VirtualDubMod 1.5.10.3 | http://www.virtualdub-fr.org || (build 2550/release)
Writing library : VirtualDubMod build 2550/release

Video
ID : 0
Format : MPEG-4 Visual
Format profile : Advanced Simple@L5
Format settings, BVOP : 1
Format settings, QPel : No
Format settings, GMC : No warppoints
Format settings, Matrix : Default (H.263)
Codec ID : XVID
Codec ID/Hint : XviD
Duration : 1h 29mn
Bit rate : 1 989 Kbps
Width : 720 pixels
Height : 400 pixels
Display aspect ratio : 16:9
Frame rate : 25.000 fps
Color space : YUV
Chroma subsampling : 4:2:0
Bit depth : 8 bits
Scan type : Progressive
Compression mode : Lossy
Bits/(Pixel*Frame) : 0.276
Stream size : 1.24 GiB (91%)
Writing library : XviD 1.2.1 (UTC 2008-12-04)

Audio
ID : 1
Format : AC-3
Format/Info : Audio Coding 3
Mode extension : CM (complete main)
Format settings, Endianness : Big
Codec ID : 2000
Duration : 1h 29mn
Bit rate mode : Constant
Bit rate : 192 Kbps
Channel(s) : 2 channels
Channel positions : Front: L R
Sampling rate : 48.0 KHz
Bit depth : 16 bits
Compression mode : Lossy
Stream size : 123 MiB (9%)
Alignment : Split accross interleaves
Interleave, duration : 40 ms (1.00 video frame)
Interleave, preload duration : 500 ms










У вас нет необходимых прав для просмотра вложений в этом сообщении.


Вернуться к началу
 Профиль  
Ответить с цитатой  
  • Торрент
Автор: NewsRbk Хэш: ---
Добавлен: 2014-03-25 23:44 Приватный: Нет (DHT включён)
Статус:
---
Размер: 1.37 ГБ (1 471 270 912 байт)
Изменил:
---
Скачали: 0 (Раздающих: 0%)
Причина:
---
Здоровье: 0%
Сидеров: 0 Личеров: 0
Скорость раздачи: 0 байт/сек Скорость скачивания: 0 байт/сек
Последний сидер: Нет Последний личер: Нет
Для скачивания торрента необходимо зарегистрироваться или войти на трекер.
Показать сообщения за:  Поле сортировки  
Начать новую тему Ответить на тему  [ 1 сообщение ] 

Часовой пояс: UTC + 3 часа


Кто сейчас на конференции

Сейчас этот форум просматривают: нет зарегистрированных пользователей и гости: 0


Вы не можете начинать темы
Вы не можете отвечать на сообщения
Вы не можете редактировать свои сообщения
Вы не можете удалять свои сообщения
Вы не можете добавлять вложения

Найти:
Перейти: